Скачать через торрент Маша и медведь: Машины песенки Фильм бесплатно в хорошем качестве torrent

Скачивайте на UnionPeer.org фильмы через торрент без регистрации. Новинки кино в хорошем качестве через торрент. На UnionPeer.org можно скачать через торрент фильмы 2014 и 2015 годов. Самые новые фильмы.

Скачать торрент Маша и медведь: Машины песенки бесплатно через .torrent фильм мультфильм сериал

Статистика раздачи
Размер:  192 MB   |    Зарегистрирован:  16 дней   |    .torrent скачан:  4 раза   |   
Раздают:  1  
   
загрузка...
 
Автор Сообщение

Galfimbul

avatar Galfimbul


Маша и Медведь. Машины песенки



[b]Год выпуска:
2018-2019
Жанр: Мультсериал, компьютерная анимация, детский, семейный
Выпущено: Россия, Студия "Анимаккорд"
Режиссер: Денис Червяцов, Ринат Газизов
В ролях: Алина Кукушкина, Эдуард Назаров, Борис Кутневич, Варвара Саранцева

О фильме: В четвёртом сезоне Маша и Медведь - "Машины Песенки" отправляются в кругосветное путешествие. Каждая серия станет яркой музыкальной историей о какой-то отдельной стране, её главных достопримечательностях и культурных особенностях, и, конечно, во всех эпизодах Маша будет петь свои неповторимые песенки! В общем, голубчики, приготовьтесь к захватывающему путешествию: наш маршрут пройдёт через Италию, Германию, Францию, Англию, Японию и другие точки земного шара, где вам обязательно стоит побывать в Машиной компании!

Качество: WEB-DL (720p)
Видео: MPEG-4 AVC, ~ 1800 Кбит/с, 1280x720
Аудио: Русский (AC3, 2 ch, 192 Кбит/с)
Продолжительность: 2 x ~ 00:06:30
Перевод: Не требуется
Субтитры: нет
Общее
Уникальный идентификатор : 206029028252668984768580364227908180176 (0x9AFFBF5BAAD3C6A1B3CE365C1BCF98D0)
Полное имя : D:ЗаписьMasha i Medved.4.sezon.WEB-DL.(720p).GeneralFilm1.Masha i Medved.4.sezon.WEB-DL.(720p).GeneralFilm.mkv
Формат : Matroska
Версия формата : Version 2
Размер файла : 87,3 Мбайт
Продолжительность : 6 м. 26 с.
Общий поток : 1896 Кбит/сек
Дата кодирования : UTC 2019-07-07 12:54:09
Программа кодирования : mkvmerge v7.8.0 ('River Man') 32bit built on Apr 3 2015 12:11:22
Библиотека кодирования : libebml v1.3.1 + libmatroska v1.4.2

Видео
Идентификатор : 1
Формат : AVC
Формат/Информация : Advanced Video Codec
Профиль формата : High@L4.1
Параметр CABAC формата : Да
Параметр ReFrames формата : 9 кадров
Идентификатор кодека : V_MPEG4/ISO/AVC
Продолжительность : 6 м. 26 с.
Битрейт : 1700 Кбит/сек
Ширина : 1280 пикселей
Высота : 720 пикселей
Соотношение сторон : 16:9
Режим частоты кадров : Постоянный
Частота кадров : 25,000 кадров/сек
Цветовое пространство : YUV
Субдискретизация насыщенности : 4:2:0
Битовая глубина : 8 бит
Тип развёртки : Прогрессивная
Бит/(Пиксели*Кадры) : 0.074
Размер потока : 76,7 Мбайт (88%)
Библиотека кодирования : x264 core 146 r2538 121396c
Настройки программы : cabac=1 / ref=9 / deblock=1:-2:-1 / analyse=0x3:0x113 / me=umh / subme=9 / psy=1 / psy_rd=1.00:0.15 / mixed_ref=1 / me_range=32 / chroma_me=1 / trellis=2 / 8x8dct=1 / cqm=0 / deadzone=21,11 / fast_pskip=0 / chroma_qp_offset=-3 / threads=18 / lookahead_threads=3 / sliced_threads=0 / nr=0 / decimate=1 / interlaced=0 / bluray_compat=0 / constrained_intra=0 / bframes=9 / b_pyramid=2 / b_adapt=2 / b_bias=0 / direct=3 / weightb=1 / open_gop=0 / weightp=2 / keyint=250 / keyint_min=25 / scenecut=40 / intra_refresh=0 / rc_lookahead=40 / rc=2pass / mbtree=0 / bitrate=1700 / ratetol=1.0 / qcomp=0.60 / qpmin=0 / qpmax=69 / qpstep=4 / cplxblur=20.0 / qblur=0.5 / vbv_maxrate=14000 / vbv_bufsize=14000 / nal_hrd=none / filler=0 / ip_ratio=1.40 / pb_ratio=1.30 / aq=2:1.00
Default : Да
Forced : Нет
Цветовой диапазон : Limited
Основные цвета : BT.709
Характеристики трансфера : BT.709
Коэффициенты матрицы : BT.709

Аудио
Идентификатор : 2
Формат : AC-3
Формат/Информация : Audio Coding 3
Расширение режима : CM (complete main)
Параметр Endianness формата : Big
Идентификатор кодека : A_AC3
Продолжительность : 6 м. 26 с.
Вид битрейта : Постоянный
Битрейт : 192 Кбит/сек
Каналы : 2 канала
Расположение каналов : Front: L R
Частота : 44,1 КГц
Частота кадров : 28,711 кадров/сек (1536 spf)
Битовая глубина : 16 бит
Метод сжатия : С потерями
Размер потока : 8,84 Мбайт (10%)
Default : Да
Forced : Нет

Общее
Уникальный идентификатор : 265843272113855010254301062542465328560 (0xC7FF8D44961FCEC6A7F5E9AD714A65B0)
Полное имя : D:ЗаписьMasha i Medved.4.sezon.WEB-DL.(720p).GeneralFilm2.Masha i Medved.4.sezon.WEB-DL.(720p).GeneralFilm.mkv
Формат : Matroska
Версия формата : Version 2
Размер файла : 104 Мбайт
Продолжительность : 6 м. 43 с.
Общий поток : 2167 Кбит/сек
Программа кодирования : Lavf54.63.104
Библиотека кодирования : Lavf54.63.104 / Lavf54.63.104

Видео
Идентификатор : 1
Формат : AVC
Формат/Информация : Advanced Video Codec
Профиль формата : Main@L3.1
Параметр CABAC формата : Да
Параметр ReFrames формата : 3 кадра
Идентификатор кодека : V_MPEG4/ISO/AVC
Продолжительность : 6 м. 43 с.
Битрейт : 1932 Кбит/сек
Ширина : 1280 пикселей
Высота : 720 пикселей
Соотношение сторон : 16:9
Режим частоты кадров : Постоянный
Частота кадров : 25,000 кадров/сек
Цветовое пространство : YUV
Субдискретизация насыщенности : 4:2:0
Битовая глубина : 8 бит
Тип развёртки : Прогрессивная
Бит/(Пиксели*Кадры) : 0.084
Размер потока : 93,0 Мбайт (89%)
Default : Нет
Forced : Нет
Цветовой диапазон : Limited
Основные цвета : BT.709
Характеристики трансфера : BT.709
Коэффициенты матрицы : BT.709

Аудио
Идентификатор : 2
Формат : AC-3
Формат/Информация : Audio Coding 3
Расширение режима : CM (complete main)
Параметр Endianness формата : Big
Идентификатор кодека : A_AC3
Продолжительность : 6 м. 43 с.
Вид битрейта : Постоянный
Битрейт : 192 Кбит/сек
Каналы : 2 канала
Расположение каналов : Front: L R
Частота : 44,1 КГц
Частота кадров : 28,711 кадров/сек (1536 spf)
Битовая глубина : 16 бит
Метод сжатия : С потерями
Размер потока : 9,24 Мбайт (9%)
Default : Да
Forced : Нет

Общее
Полное имя : D:ЗаписьMasha i Medved.4.sezon.WEB-DL.(720p).GeneralFilmMasha i Medved.4.sezon.WEB-DL.(720p).GeneralFilm.torrent
Размер файла : 15,5 Кбайт
Раздача ведётся путём добавления новых серий, при каждом добавлении создаётся новый торрент. Чтобы начать докачку новой серии, пользователям необходимо сделать следующее:

- Остановить скачивание.
- Удалить старый торрент у себя из клиента (старые серии удалять не надо).
- Скачать новый торрент и запустить его у себя в клиенте вместо старого, при этом указать клиенту путь в старую папку куда и должно происходить скачивание новых серий.

Ваш клиент при этом должен произвести хеширование (проверку) старой папки (если не производит сам - помогите ему сделать это), и будет докачивать только те серии которых у вас ещё нет. Старые серии при этом не удаляются, а продолжают раздаваться!
Если вы уже удалили старые серии, то предотвратить повторную закачку старых серий можно, отжав галочку в соответствующих местах при запуске нового торрента. По возможности, желательно не удалять старые серии как можно дольше, чтобы релизер не столько продолжал раздавать старые серии, а смог сконцентрироваться на новых.
Релиз:
Источник http://BlaTor.org

Трекер:  [ 07-Июл-2019 18:00 ]

  

Скачать .torrent

Размер .torrent файла 15 KB


Размер: 192 MB
Хэш (hash) релиза: a46407b7862e8b60a3d96140a9c25cfa0216d8db
Подписка на обновления:

Еще никто не оставлял запись к записи скачать торрент Маша и медведь: Машины песенки . Будь первым!

!Обратная связь