Скачать через торрент Маша и медведь: Машины песенки Фильм бесплатно в хорошем качестве torrent

Скачивайте на UnionPeer.org фильмы через торрент без регистрации. Новинки кино в хорошем качестве через торрент. На UnionPeer.org можно скачать через торрент фильмы 2014 и 2015 годов. Самые новые фильмы.

Скачать торрент Маша и медведь: Машины песенки бесплатно через .torrent фильм мультфильм сериал

Статистика раздачи
Размер:  317 MB   |    Зарегистрирован:  4 месяца 15 дней   |    .torrent скачан:  35 раз   |   
Раздают:  1  
 

Скачать Маша и медведь: Машины песенки [04х01-02] (2018-2019) WEB-DL 1080p от GeneralFilm через torrent

 
загрузка...
 
Автор Сообщение

Galfimbul

avatar Galfimbul


Маша и Медведь. Машины песенки



[b]Год выпуска:
2018-2019
Жанр: Мультсериал, компьютерная анимация, детский, семейный
Выпущено: Россия, Студия "Анимаккорд"
Режиссер: Денис Червяцов, Ринат Газизов
В ролях: Алина Кукушкина, Эдуард Назаров, Борис Кутневич, Варвара Саранцева

О фильме: В четвёртом сезоне Маша и Медведь - "Машины Песенки" отправляются в кругосветное путешествие. Каждая серия станет яркой музыкальной историей о какой-то отдельной стране, её главных достопримечательностях и культурных особенностях, и, конечно, во всех эпизодах Маша будет петь свои неповторимые песенки! В общем, голубчики, приготовьтесь к захватывающему путешествию: наш маршрут пройдёт через Италию, Германию, Францию, Англию, Японию и другие точки земного шара, где вам обязательно стоит побывать в Машиной компании!

Качество: WEB-DL (1080p)
Видео: MPEG-4 AVC, ~ 3000 Кбит/с, 1920x1080
Аудио: Русский (AC3, 2 ch, 192 Кбит/с)
Продолжительность: 2 x ~ 00:06:30
Перевод: Не требуется
Субтитры: нет
Общее
Уникальный идентификатор : 191187893229727308824607916944920225471 (0x8FD572E853F8B01E58B6AA3F344926BF)
Полное имя : D:ЗаписьMasha i Medved.4.sezon.WEB-DL.(1080p).GeneralFilm1.Masha i Medved.4.sezon.WEB-DL.(1080p).GeneralFilm.mkv
Формат : Matroska
Версия формата : Version 2
Размер файла : 122 Мбайт
Продолжительность : 6 м. 26 с.
Общий поток : 2646 Кбит/сек
Программа кодирования : Lavf54.63.104
Библиотека кодирования : Lavf54.63.104 / Lavf54.63.104

Видео
Идентификатор : 1
Формат : AVC
Формат/Информация : Advanced Video Codec
Профиль формата : High@L4
Параметр CABAC формата : Да
Параметр ReFrames формата : 3 кадра
Идентификатор кодека : V_MPEG4/ISO/AVC
Продолжительность : 6 м. 26 с.
Битрейт : 2401 Кбит/сек
Ширина : 1920 пикселей
Высота : 1080 пикселей
Соотношение сторон : 16:9
Режим частоты кадров : Постоянный
Частота кадров : 25,000 кадров/сек
Цветовое пространство : YUV
Субдискретизация насыщенности : 4:2:0
Битовая глубина : 8 бит
Тип развёртки : Прогрессивная
Бит/(Пиксели*Кадры) : 0.046
Размер потока : 111 Мбайт (91%)
Default : Нет
Forced : Нет
Цветовой диапазон : Limited
Основные цвета : BT.709
Характеристики трансфера : BT.709
Коэффициенты матрицы : BT.709

Аудио
Идентификатор : 2
Формат : AC-3
Формат/Информация : Audio Coding 3
Расширение режима : CM (complete main)
Параметр Endianness формата : Big
Идентификатор кодека : A_AC3
Продолжительность : 6 м. 26 с.
Вид битрейта : Постоянный
Битрейт : 192 Кбит/сек
Каналы : 2 канала
Расположение каналов : Front: L R
Частота : 44,1 КГц
Частота кадров : 28,711 кадров/сек (1536 spf)
Битовая глубина : 16 бит
Метод сжатия : С потерями
Размер потока : 8,84 Мбайт (7%)
Default : Да
Forced : Нет

Общее
Уникальный идентификатор : 251280277409824284472407858254262746540 (0xBD0AD231A0912C8B389D17EF95EABDAC)
Полное имя : D:ЗаписьMasha i Medved.4.sezon.WEB-DL.(1080p).GeneralFilm2.Masha i Medved.4.sezon.WEB-DL.(1080p).GeneralFilm.mkv
Формат : Matroska
Версия формата : Version 2
Размер файла : 195 Мбайт
Продолжительность : 6 м. 43 с.
Общий поток : 4051 Кбит/сек
Программа кодирования : Lavf54.63.104
Библиотека кодирования : Lavf54.63.104 / Lavf54.63.104

Видео
Идентификатор : 1
Формат : AVC
Формат/Информация : Advanced Video Codec
Профиль формата : High@L4
Параметр CABAC формата : Да
Параметр ReFrames формата : 3 кадра
Идентификатор кодека : V_MPEG4/ISO/AVC
Продолжительность : 6 м. 43 с.
Битрейт : 3778 Кбит/сек
Ширина : 1920 пикселей
Высота : 1080 пикселей
Соотношение сторон : 16:9
Режим частоты кадров : Постоянный
Частота кадров : 25,000 кадров/сек
Цветовое пространство : YUV
Субдискретизация насыщенности : 4:2:0
Битовая глубина : 8 бит
Тип развёртки : Прогрессивная
Бит/(Пиксели*Кадры) : 0.073
Размер потока : 182 Мбайт (93%)
Default : Нет
Forced : Нет
Цветовой диапазон : Limited
Основные цвета : BT.709
Характеристики трансфера : BT.709
Коэффициенты матрицы : BT.709

Аудио
Идентификатор : 2
Формат : AC-3
Формат/Информация : Audio Coding 3
Расширение режима : CM (complete main)
Параметр Endianness формата : Big
Идентификатор кодека : A_AC3
Продолжительность : 6 м. 43 с.
Вид битрейта : Постоянный
Битрейт : 192 Кбит/сек
Каналы : 2 канала
Расположение каналов : Front: L R
Частота : 44,1 КГц
Частота кадров : 28,711 кадров/сек (1536 spf)
Битовая глубина : 16 бит
Метод сжатия : С потерями
Размер потока : 9,24 Мбайт (5%)
Default : Да
Forced : Нет
Раздача ведётся путём добавления новых серий, при каждом добавлении создаётся новый торрент. Чтобы начать докачку новой серии, пользователям необходимо сделать следующее:

- Остановить скачивание.
- Удалить старый торрент у себя из клиента (старые серии удалять не надо).
- Скачать новый торрент и запустить его у себя в клиенте вместо старого, при этом указать клиенту путь в старую папку куда и должно происходить скачивание новых серий.

Ваш клиент при этом должен произвести хеширование (проверку) старой папки (если не производит сам - помогите ему сделать это), и будет докачивать только те серии которых у вас ещё нет. Старые серии при этом не удаляются, а продолжают раздаваться!
Если вы уже удалили старые серии, то предотвратить повторную закачку старых серий можно, отжав галочку в соответствующих местах при запуске нового торрента. По возможности, желательно не удалять старые серии как можно дольше, чтобы релизер не столько продолжал раздавать старые серии, а смог сконцентрироваться на новых.
Релиз:
Источник http://BlaTor.org

Трекер:  [ 07-Июл-2019 18:00 ]

  

Скачать .torrent

Размер .torrent файла 13 KB


Размер: 317 MB
Хэш (hash) релиза: 14ec9d2cd32e79429742a9b1e73da852780fa089
Подписка на обновления:

Еще никто не оставлял запись к записи скачать торрент Маша и медведь: Машины песенки . Будь первым!

!Обратная связь