Скачать через торрент Донбасс. Окраина Фильм бесплатно в хорошем качестве torrent

Скачивайте на UnionPeer.org фильмы через торрент без регистрации. Новинки кино в хорошем качестве через торрент. На UnionPeer.org можно скачать через торрент фильмы 2014 и 2015 годов. Самые новые фильмы.

Скачать торрент Донбасс. Окраина бесплатно через .torrent фильм мультфильм сериал

Статистика раздачи
Размер:  1.46 GB   |    Зарегистрирован:  4 месяца 10 дней   |    .torrent скачан:  230 раз   |   
Раздают:  1  
 

Скачать Донбасс. Окраина (2018) WEB-DLRip от GeneralFilm | iTunes через torrent

 
загрузка...
 
Автор Сообщение

Galfimbul

avatar Galfimbul


Оригинальное название: Донбасс. Окраина
Год выпуска: 2018
Жанр: Драма, военный, триллер
Выпущено: Россия, Интерфест, Пропеллер Продакшн
Режиссер: Ренат Давлетьяров
В ролях: Гела Месхи, Евгений Михеев, Сергей Холмогоров, Ульяна Курочкина, Анна Пескова, Женя Малахова, Валентина Попова, Иван Неклюдов, Владимир Сорков

О фильме: Август 2014 года, окраина Донецка. Молодой солдат украинской армии Андрей Соколов направлен в зону военных действий водителем. Спасаясь от обстрела, он попадает в подвал жилого дома, где знакомится с несколькими совершенно разными людьми. Они пришли с разных сторон, у них разные судьбы и мировоззрение, но сейчас они объединены одной целью — выжить.



Качество: WEB-DLRip
Видео: XviD build 73, 720x304 (2.37:1), 25.000 fps, 1861 Kbps (0.340 bit/pixel)
Аудио: 48.0 kHz, AC3, 6 ch, 384 kbps
Продолжительность: 01:32:29
Перевод: Не требуется [Русский]
Cубтитры: нет
General
Complete name : D:RazdachiDonbass.Okraina.2018.WEB-DLRip.1.45Gb.GeneralFilm.avi
Format : AVI
Format/Info : Audio Video Interleave
File size : 1.46 GiB
Duration : 1 h 32 min
Overall bit rate : 2 254 kb/s
Writing application : VirtualDubMod 1.5.10.3 | www.virtualdub-fr.org || (build 2550/release)
Writing library : VirtualDubMod build 2550/release

Video
ID : 0
Format : MPEG-4 Visual
Format profile : Advanced Simple@L5
Format settings : BVOP1 / Custom Matrix
Format settings, BVOP : 1
Format settings, QPel : No
Format settings, GMC : No warppoints
Format settings, Matrix : Custom
Codec ID : XVID
Codec ID/Hint : XviD
Duration : 1 h 32 min
Bit rate : 1 861 kb/s
Width : 720 pixels
Height : 304 pixels
Display aspect ratio : 2.35:1
Frame rate : 25.000 FPS
Color space : YUV
Chroma subsampling : 4:2:0
Bit depth : 8 bits
Scan type : Progressive
Compression mode : Lossy
Bits/(Pixel*Frame) : 0.340
Stream size : 1.20 GiB (83%)
Writing library : XviD 73

Audio
ID : 1
Format : AC-3
Format/Info : Audio Coding 3
Commercial name : Dolby Digital
Codec ID : 2000
Duration : 1 h 32 min
Bit rate mode : Constant
Bit rate : 384 kb/s
Channel(s) : 6 channels
Channel layout : L R C LFE Ls Rs
Sampling rate : 48.0 kHz
Frame rate : 31.250 FPS (1536 SPF)
Bit depth : 16 bits
Compression mode : Lossy
Stream size : 254 MiB (17%)
Alignment : Split accross interleaves
Interleave, duration : 40 ms (1.00 video frame)
Interleave, preload duratio : 500 ms
Service kind : Complete Main
Релиз от:
Источник http://BlaTor.org

Трекер:  [ 10-Июл-2019 07:10 ]

  

Скачать .torrent

Размер .torrent файла 15 KB


Размер: 1.46 GB
Хэш (hash) релиза: 426e051dea25b05e63247299ea81b17bf77d91de
Подписка на обновления:

Торренты, похожие на Донбасс. Окраина скачать торрент

Форум Название Автор Размер S L Добавлен
Российские фильмы 2016-2018 (Новинки русского кино) ·%· Донбасс. Окраина (2018) WEB-DLRip от Files-x | iTunes Galfimbul 771637248736 MB 2 0 1562929823

14:10

12-Июл-19

Российские фильмы 2016-2018 (Новинки русского кино) ·%· Донбасс. Окраина (2018) WEB-DLRip от Files-x | iTunes Galfimbul 14590279681.36 GB 2 0 1562926230

13:10

12-Июл-19

Российские фильмы 2016-2018 (Новинки русского кино) ·%· Донбасс. Окраина (2018) WEB-DLRip от GeneralFilm | iTunes Galfimbul 782176256746 MB 0 0 1562715081

02:31

10-Июл-19

Еще никто не оставлял запись к записи скачать торрент Донбасс. Окраина . Будь первым!

!Обратная связь