Скачать через торрент Бегство рогатых викингов Фильм бесплатно в хорошем качестве torrent

Скачивайте на UnionPeer.org фильмы через торрент без регистрации. Новинки кино в хорошем качестве через торрент. На UnionPeer.org можно скачать через торрент фильмы 2014 и 2015 годов. Самые новые фильмы.

Скачать торрент Бегство рогатых викингов бесплатно через .torrent фильм мультфильм сериал

Статистика раздачи
Размер:  1.37 GB   |    Зарегистрирован:  4 месяца 11 дней   |    .torrent скачан:  53 раза   |   
Раздают:  1  
 

Скачать Бегство рогатых викингов (2019) WEB-DLRip | iTunes через torrent

 
загрузка...
 
Автор Сообщение

Galfimbul

avatar Galfimbul


Бегство рогатых викингов

Страна: Россия
Производство: Ассоциация НП «КОТ»
Год выпуска: 2019
Жанр: семейный, комедия, детский, приключения
Продолжительность: 01:10:18

Режиссер: Илья Белостоцкий
В ролях: Евгений Олещук, Илья Плясухин, Даша Чистякова, Мирослав Быков, Никита Смирнов, Никита Липунов, Алексей Ломакин, Алина Бабушкина

Описание: Ещё один день, и Джонни Воробьёву исполнится девять лет. Тогда он наконец-то освободится от своего летнего «рабства» в летнем лагере под присмотром несносной старшей сестры и сможет спокойно проводить каникулы с своими друзьями. Но Джонни даёт благородное обещание остановить зловредного Тольку Самохина и его банду рогатых викингов и прекратить их набеги на ребятишек по всей округе...



Перевод: не требуется (оригинал) | iTunes
Субтитры: нет
Качество: WEB-DLRip
Формат: AVI
Видео кодек: XviD
Аудио кодек: АС3
Видео: 688x384 (16:9), 24.000 fps, XviD build 73 ~2 390 kbps avg
Аудио: 48.0 kHz, AC3 Dolby Digital, 3/2 (L,C,R,l,r) + LFE ch, ~384 kbps

Дата премьеры (РФ): 13 июня 2019, «Кинологистика»



<span style="color:Green;">
General
Формат : AVI
Формат/Информация : Audio Video Interleave
Размер файла : 1,37 Гбайт
Продолжительность : 1 ч. 10 м.
Общий поток : 2784 Кбит/сек
Название фильма : Бегство рогатых викингов_2018_WEB-DLRip
Программа кодирования : VirtualDubMod 1.5.10.3 | (build 2550/release)
Авторское право : порошков

Видео
Идентификатор : 0
Формат : MPEG-4 Visual
Профиль формата : Advanced Simple@L5
Настройки формата : BVOP1 / Custom Matrix
Параметр BVOP формата : 1
Параметр QPel формата : Нет
Параметр GMC формата : Без точки перехода
Параметр матрицы формата : Выборочная
Идентификатор кодека : XVID
Идентификатор кодека/Подсказка : XviD
Продолжительность : 1 ч. 10 м.
Битрейт : 2390 Кбит/сек
Ширина : 688 пикселей
Высота : 384 пикселя
Соотношение сторон : 16:9
Частота кадров : 24,000 кадра/сек
Цветовое пространство : YUV
Субдискретизация насыщенности : 4:2:0
Битовая глубина : 8 бит
Тип развёртки : Прогрессивная
Метод сжатия : С потерями
Бит/(Пиксели*Кадры) : 0.377
Размер потока : 1,17 Гбайт (86%)
Библиотека кодирования : XviD 73

Аудио
Идентификатор : 1
Формат : AC-3
Формат/Информация : Audio Coding 3
Коммерческое название : Dolby Digital
Идентификатор кодека : 2000
Продолжительность : 1 ч. 10 м.
Вид битрейта : Постоянный
Битрейт : 384 Кбит/сек
Каналы : 6 каналов
ChannelLayout : L R C LFE Ls Rs
Частота : 48,0 КГц
Частота кадров : 31,250 кадров/сек (1536 SPF)
Битовая глубина : 16 бит
Метод сжатия : С потерями
Размер потока : 193 Мбайт (14%)
Выравнивание : Разделение по промежуткам
Продолжительность промежутка : 42 мс. (1,00 видеокадр)
Время предзагрузки промежутка : 500 мс.
Источник http://BlaTor.org

Трекер:  [ 11-Июл-2019 12:20 ]

  

Скачать .torrent

Размер .torrent файла 14 KB


Размер: 1.37 GB
Хэш (hash) релиза: 12037481fb166289ccbc39e3667872fdb447095d
Подписка на обновления:

Еще никто не оставлял запись к записи скачать торрент Бегство рогатых викингов . Будь первым!

!Обратная связь