Скачать через торрент Папа Лола Лола Патер Фильм бесплатно в хорошем качестве torrent

Скачивайте на UnionPeer.org фильмы через торрент без регистрации. Новинки кино в хорошем качестве через торрент. На UnionPeer.org можно скачать через торрент фильмы 2014 и 2015 годов. Самые новые фильмы.

Скачать торрент Папа Лола Лола Патер бесплатно через .torrent фильм мультфильм сериал

Статистика раздачи
Размер:  740 MB   |    Зарегистрирован:  12 дней   |    .torrent скачан:  19 раз   |   
Раздают:  1  
   
загрузка...
 
Автор Сообщение

Galfimbul

avatar Galfimbul


Папа Лола / Лола Патер /Lola Pater

Год выхода: 2017
Жанр: драма, транс-тема
Режиссер: Надир Мокнеш / Nadir Mokn?che
В ролях: Фанни Ардан (Лола / Фарид Шекиб), Тевфик Джаллаб (Зино), Надя Каси (Рашида), Люси Дебе (Паула). Вероник Дюмон (Катрин), Бруно Санчес (Фред), Лубна Азабаль, Батист Мулар, Лоуренс Валин, Отман Бекара, Ахмед Зерари, Жан-Анри Компере

О фильме:
27-летний парижанин Зино, сын алжирских иммигрантов, только что похоронил мать. Он вырос с матерью, отец оставил семью, когда Зино был ещё маленьким. От нотариуса парень узнаёт, что отец вовсе не вернулся в Алжир, как уверяла мать, а живёт в городке на юге Франции, и что его родители даже не были в разводе. Молодой человек решает узнать правду.



Страна: Франция, Бельгия
Продолжительность: 01:31:10
Перевод: Любительский многоголосый закадровый - Синема УС

Файл
Качество: WEB-DLRip-AVC
Формат: MKV
Видео: AVC; 768 x 320 (2,40:1); 25 кадров/сек; 875 Кбит/сек
Аудио 1: AAC; 48 КГц; 128 Кбит/сек; 2 канала; L (Русский, Синема УС)
Аудио 2: AAC; 48 КГц; 128 Кбит/сек; 2 канала; Оригинал (Французский)
Субтитры: русские (отключаемые, SRT)

Семпл
Общее
Формат : Matroska
Версия формата : Version 4 / Version 2
Размер файла : 740 Мбайт
Продолжительность : 1 ч. 31 м.
Общий поток : 1134 Кбит/сек
Дата кодирования : UTC 2019-04-30 16:40:31
Программа кодирования : mkvmerge v24.0.0 ('Beyond The Pale') 32-bit
Библиотека кодирования : libebml v1.3.6 + libmatroska v1.4.9

Видео
Идентификатор : 1
Формат : AVC
Формат/Информация : Advanced Video Codec
Профиль формата : High@L3
Настройки формата : CABAC / 7 Ref Frames
Параметр CABAC формата : Да
Параметр RefFrames формата : 7 кадров
Идентификатор кодека : V_MPEG4/ISO/AVC
Продолжительность : 1 ч. 31 м.
Битрейт : 875 Кбит/сек
Ширина : 768 пикселей
Высота : 320 пикселей
Соотношение сторон : 2,40:1
Режим частоты кадров : Постоянный
Частота кадров : 25,000 кадров/сек
Цветовое пространство : YUV
Субдискретизация насыщенности : 4:2:0
Битовая глубина : 8 бит
Тип развёртки : Прогрессивная
Бит/(Пиксели*Кадры) : 0.142
Размер потока : 571 Мбайт (77%)
Библиотека кодирования : x264 core 155 r2901 7d0ff22
Настройки программы : cabac=1 / ref=7 / deblock=1:0:0 / analyse=0x3:0x113 / me=umh / subme=9 / psy=1 / psy_rd=1.00:0.00 / mixed_ref=1 / me_range=24 / chroma_me=1 / trellis=1 / 8x8dct=1 / cqm=0 / deadzone=21,11 / fast_pskip=1 / chroma_qp_offset=-2 / threads=10 / lookahead_threads=1 / sliced_threads=0 / nr=0 / decimate=1 / interlaced=0 / bluray_compat=0 / constrained_intra=0 / bframes=7 / b_pyramid=2 / b_adapt=1 / b_bias=0 / direct=1 / weightb=1 / open_gop=0 / weightp=2 / keyint=250 / keyint_min=25 / scenecut=40 / intra_refresh=0 / rc_lookahead=40 / rc=2pass / mbtree=1 / bitrate=875 / ratetol=1.0 / qcomp=0.60 / qpmin=0 / qpmax=69 / qpstep=4 / cplxblur=20.0 / qblur=0.5 / ip_ratio=1.40 / aq=1:1.00
Default : Да
Forced : Нет

Аудио #1
Идентификатор : 2
Формат : AAC
Формат/Информация : Advanced Audio Codec
Профиль формата : LC
Идентификатор кодека : A_AAC-2
Продолжительность : 1 ч. 31 м.
Битрейт : 128 Кбит/сек
Каналы : 2 канала
Расположение каналов : Front: L R
Частота : 48,0 КГц
Частота кадров : 46,875 кадров/сек (1024 SPF)
Метод сжатия : С потерями
Размер потока : 83,5 Мбайт (11%)
Заголовок : Синема УС
Язык : Russian
Default : Да
Forced : Нет

Аудио #2
Идентификатор : 3
Формат : AAC
Формат/Информация : Advanced Audio Codec
Профиль формата : LC
Идентификатор кодека : A_AAC-2
Продолжительность : 1 ч. 31 м.
Битрейт : 128 Кбит/сек
Каналы : 2 канала
Расположение каналов : Front: L R
Частота : 48,0 КГц
Частота кадров : 46,875 кадров/сек (1024 SPF)
Метод сжатия : С потерями
Размер потока : 83,5 Мбайт (11%)
Язык : French
Default : Нет
Forced : Нет

Текст
Идентификатор : 4
Формат : UTF-8
Идентификатор кодека : S_TEXT/UTF8
Идентификатор кодека/Информация : UTF-8 Plain Text
Продолжительность : 1 ч. 29 м.
Битрейт : 51 бит/сек
ElementCount : 908
Размер потока : 33,8 Кбайт (0%)
Язык : Russian
Default : Нет
Forced : Нет
Источник http://BlaTor.org

Трекер:  [ 11-Июл-2019 22:00 ]

  

Скачать .torrent

Размер .torrent файла 15 KB


Размер: 740 MB
Хэш (hash) релиза: f82b7ce54e53ae9a2fe96407d1904371d4fd7b4c
Подписка на обновления:

Еще никто не оставлял запись к записи скачать торрент Папа Лола Лола Патер . Будь первым!

!Обратная связь