Скачать через торрент Фурия Hai Phuong Фильм бесплатно в хорошем качестве torrent

Скачивайте на UnionPeer.org фильмы через торрент без регистрации. Новинки кино в хорошем качестве через торрент. На UnionPeer.org можно скачать через торрент фильмы 2014 и 2015 годов. Самые новые фильмы.

Скачать торрент Фурия Hai Phuong бесплатно через .torrent фильм мультфильм сериал

Статистика раздачи
Размер:  16.58 GB   |    Зарегистрирован:  4 месяца 11 дней   |    .torrent скачан:  23 раза   |   
Раздают:  1  
 

Скачать Фурия / Hai Phuong (2019) BDRemux 1080p | СВ Студия через torrent

 
загрузка...
 
Автор Сообщение

Galfimbul

avatar Galfimbul


Фурия /Hai Phuong

Год выхода: 2019
Жанр: Боевик, криминал
Режиссер: Ле-Ван Киэт
В ролях: Вероника Нго, Дженнифер Аликс, Фам Анх Хоа, Тхань Ньен Фан, Брианна Робертс, Элизабет Суит, Ким Лонг Тач, Хоа Чан

О фильме:
10 лет назад бывшая глава преступной группировки залегла на дно в сельской местности, родила девочку и наслаждается простым женским счастьем. Поскольку делать женщина ничего полезного не умеет, то занимается сбором долгов. Дочка Май из-за этого переживает и мечтает, что когда-нибудь они откроют рыбную ферму, и маме больше не нужно будет выполнять эту постыдную работу. Внезапно Май похищает международная организация торговцев людьми, и женщина превращается в смертоносную фурию — она пойдёт до конца, чтобы спасти дочь, а негодяям придется пожалеть о своем поступке...

Страна: Вьетнам
Студия: Studio 68, Netflix
Продолжительность: 01:37:19
Перевод: Профессиональный многоголосый | СВ Студия -ненормативная лексика

Файл
Качество: BDRemux 1080p | СВ Студия
Видео: AVC/H.264, 1920x1080, 18,4 Мbps, 24 fps
Звук:
Аудио 1: AC3, 6 ch, 640 Kbps - Русский
Аудио 2: DTS-HD MA, 6ch, 2297 Kbps - Английский
Аудио 3: DTS-HD MA, 8ch, 3005 Kbps - Bьетнамский
Субтитры: Английские (Full, SDH)
Общее
Уникальный идентификатор : 193582228232544866698903405163521322571 (0x91A294BCC5887881B79CFFFC93D92E4B)
Полное имя : Hai Phuong.2019.Remux.W.mkv
Формат : Matroska
Версия формата : Version 4
Размер файла : 16,6 Гбайт
Продолжительность : 1 ч. 37 м.
Режим общего битрейта : Переменный
Общий поток : 24,4 Мбит/сек
Название фильма : Hai Phuong / Furie.2019.Remux.W
Дата кодирования : UTC 2019-07-11 18:47:28
Программа кодирования : mkvmerge v23.0.0 ('The Bride Said No') 64-bit
Библиотека кодирования : libebml v1.3.6 + libmatroska v1.4.9

Видео
Идентификатор : 1
Формат : AVC
Формат/Информация : Advanced Video Codec
Профиль формата : High@L4.1
Настройки формата : CABAC / 4 Ref Frames
Параметр CABAC формата : Да
Параметр RefFrames формата : 4 кадра
Идентификатор кодека : V_MPEG4/ISO/AVC
Продолжительность : 1 ч. 37 м.
Вид битрейта : Переменный
Битрейт : 18,4 Мбит/сек
Максимальный битрейт : 19,0 Мбит/сек
Ширина : 1920 пикселей
Высота : 1080 пикселей
Соотношение сторон : 16:9
Режим частоты кадров : Постоянный
Частота кадров : 24,000 кадра/сек
Цветовое пространство : YUV
Субдискретизация насыщенности : 4:2:0
Битовая глубина : 8 бит
Тип развёртки : Прогрессивная
Бит/(Пиксели*Кадры) : 0.371
Размер потока : 12,5 Гбайт (76%)
Язык : Vietnamese
Default : Да
Forced : Нет

Аудио #1
Идентификатор : 2
Формат : AC-3
Формат/Информация : Audio Coding 3
Коммерческое название : Dolby Digital
Идентификатор кодека : A_AC3
Продолжительность : 1 ч. 37 м.
Вид битрейта : Постоянный
Битрейт : 640 Кбит/сек
Каналы : 6 каналов
ChannelLayout : L R C LFE Ls Rs
Частота : 48,0 КГц
Частота кадров : 31,250 кадров/сек (1536 SPF)
Битовая глубина : 16 бит
Метод сжатия : С потерями
Размер потока : 445 Мбайт (3%)
Заголовок : MVO | СВ Студия
Язык : Russian
ServiceKind : Complete Main
Default : Да
Forced : Нет

Аудио #2
Идентификатор : 3
Формат : DTS XLL
Формат/Информация : Digital Theater Systems
Коммерческое название : DTS-HD Master Audio
Идентификатор кодека : A_DTS
Продолжительность : 1 ч. 37 м.
Вид битрейта : Переменный
Битрейт : 2297 Кбит/сек
Каналы : 6 каналов
ChannelLayout : C L R Ls Rs LFE
Частота : 48,0 КГц
Частота кадров : 93,750 кадра/сек (512 SPF)
Битовая глубина : 16 бит
Метод сжатия : Без потерь
Размер потока : 1,56 Гбайт (9%)
Язык : English
Default : Нет
Forced : Нет

Аудио #3
Идентификатор : 4
Формат : DTS XLL
Формат/Информация : Digital Theater Systems
Коммерческое название : DTS-HD Master Audio
Идентификатор кодека : A_DTS
Продолжительность : 1 ч. 37 м.
Вид битрейта : Переменный
Битрейт : 3005 Кбит/сек
Каналы : 8 каналов
ChannelLayout : C L R LFE Lb Rb Lss Rss
Частота : 48,0 КГц
Частота кадров : 93,750 кадра/сек (512 SPF)
Битовая глубина : 16 бит
Метод сжатия : Без потерь
Размер потока : 2,04 Гбайт (12%)
Язык : Vietnamese
Default : Нет
Forced : Нет

Текст #1
Идентификатор : 5
Формат : UTF-8
Идентификатор кодека : S_TEXT/UTF8
Идентификатор кодека/Информация : UTF-8 Plain Text
Продолжительность : 1 ч. 30 м.
Битрейт : 37 бит/сек
ElementCount : 849
Размер потока : 24,8 Кбайт (0%)
Заголовок : Full
Язык : English
Default : Нет
Forced : Нет

Текст #2
Идентификатор : 6
Формат : UTF-8
Идентификатор кодека : S_TEXT/UTF8
Идентификатор кодека/Информация : UTF-8 Plain Text
Продолжительность : 1 ч. 30 м.
Битрейт : 39 бит/сек
ElementCount : 921
Размер потока : 26,3 Кбайт (0%)
Заголовок : SDH
Язык : English
Default : Нет
Forced : Нет

Меню
00:00:00.000 : en:Chapter 1
00:07:58.083 : en:Chapter 2
00:18:37.750 : en:Chapter 3
00:25:33.375 : en:Chapter 4
00:34:46.750 : en:Chapter 5
00:45:30.500 : en:Chapter 6
00:54:38.791 : en:Chapter 7
01:02:59.416 : en:Chapter 8
01:09:26.125 : en:Chapter 9
01:13:43.541 : en:Chapter 10
01:23:34.208 : en:Chapter 11
01:32:52.708 : en:Chapter 12
01:37:18.458 : en:Chapter 13
Источник http://BlaTor.org

Трекер:  [ 11-Июл-2019 22:40 ]

  

Скачать .torrent

Размер .torrent файла 83 KB


Размер: 16.58 GB
Хэш (hash) релиза: a01c72ca8cb0ac13513e3a38f7ded8c4329f66cc
Подписка на обновления:

Торренты, похожие на Фурия Hai Phuong скачать торрент

Форум Название Автор Размер S L Добавлен
Зарубежные фильмы 2016-2018 (Новинки зарубежного кино) ·%· Фурия / Hai Phuong (2019) BDRip-AVC от ExKinoRay | CВ Студия Galfimbul 782942248747 MB 0 0 1563122424

19:40

14-Июл-19

Зарубежные фильмы 2016-2018 (Новинки зарубежного кино) ·%· Фурия / Hai Phuong (2019) BDRip 1080p | СВ Студия Galfimbul 72853909416.79 GB 0 0 1562923809

12:30

12-Июл-19

Зарубежные фильмы 2016-2018 (Новинки зарубежного кино) ·%· Фурия / Hai Phuong (2019) BDRip от MegaPeer | СВ Студия Galfimbul 15680163841.46 GB 0 0 1562868735

21:12

11-Июл-19

Зарубежные фильмы 2016-2018 (Новинки зарубежного кино) ·%· Фурия / Hai Phuong / Furie (2019) WEB-DLRip от Scarabey | CВ Студия Galfimbul 15509975041.44 GB 0 0 1562518875

20:01

7-Июл-19

Зарубежные фильмы 2016-2018 (Новинки зарубежного кино) ·%· Фурия / Hai Phuong (2019) WEB-DLRip-AVC от OlLanDGroup | P Galfimbul 15673352671.46 GB 0 0 1562257254

19:20

4-Июл-19

Зарубежные фильмы 2016-2018 (Новинки зарубежного кино) ·%· Фурия / Hai Phuong (2019) WEB-DL 720p | СВ Студия Galfimbul 35929199453.35 GB 2 0 1562257215

19:20

4-Июл-19

Зарубежные фильмы 2016-2018 (Новинки зарубежного кино) ·%· Фурия / Hai Phuong (2019) WEB-DLRip от ExKinoRay | СВ Студия Galfimbul 781600768745 MB 0 0 1562247640

16:40

4-Июл-19

Зарубежные фильмы 2016-2018 (Новинки зарубежного кино) ·%· Фурия / Hai Phuong (2019) WEB-DLRip | СВ Студия Galfimbul 15637237761.46 GB 0 0 1562227954

11:12

4-Июл-19

Зарубежные фильмы 2016-2018 (Новинки зарубежного кино) ·%· Фурия / Hai Phuong (2019) WEB-DL 1080p | СВ Студия Galfimbul 56580982775.27 GB 0 0 1562210450

06:20

4-Июл-19

Еще никто не оставлял запись к записи скачать торрент Фурия Hai Phuong . Будь первым!

!Обратная связь