Скачать через торрент Алита: Боевой ангел Alita: Battle Angel Фильм бесплатно в хорошем качестве torrent

Скачивайте на UnionPeer.org фильмы через торрент без регистрации. Новинки кино в хорошем качестве через торрент. На UnionPeer.org можно скачать через торрент фильмы 2014 и 2015 годов. Самые новые фильмы.

Скачать торрент Алита: Боевой ангел Alita: Battle Angel бесплатно через .torrent фильм мультфильм сериал

Статистика раздачи
Размер:  10.49 GB   |    Зарегистрирован:  4 месяца 11 дней   |    .torrent скачан:  309 раз   |   
Раздают:  1  
 

Скачать Алита: Боевой ангел / Alita: Battle Angel (2019) BDRip 1080p | D, P | iTunes через torrent

 
загрузка...
 
Автор Сообщение

Galfimbul

avatar Galfimbul


Алита: Боевой ангел /Alita: Battle Angel

Год выхода: 2019
Жанр: Фантастика, боевик, триллер, мелодрама, приключения
Режиссер: Роберт Родригес
В ролях: Роза Салазар, Кристоф Вальц, Дженнифер Коннелли, Махершала Али, Эд Скрейн, Джеки Эрл Хейли, Кин Джонсон, Хорхе Лендеборг мл., Лана Кондор, Идара Виктор



О фильме: Действие фильма происходит через 300 лет после Великой войны в XXVI веке. Доктор Идо находит останки женщины-киборга. После починки киборг ничего не помнит, но обнаруживает, что в состоянии пользоваться боевыми приемами киборгов. Начинаются поиски утерянных воспоминаний.

Страна: Канада, Аргентина, США
Студия: Twentieth Century Fox, Lightstorm Entertainment, Troublemaker Studios
Продолжительность: 02:01:57
Перевод: Дублированный (iTunes), Профессиональный многоголосый (СВ Студия), Профессиональный многоголосый (HDRezka Studio)

Качество: BDRip 1080p
Видео: MPEG-4 AVC, 10000 Kбит/с, 1920x808
Звук: Русский (AC3, 6 ch, 384 Кбит/с) - iTunes, (AC3, 2 ch, 192 Кбит/с) - СВ Студия, (AC3, 2 ch, 192 Кбит/с) - HDRezka Studio, английский (DTS, 6 ch, 1510 Кбит/с)
Субтитры: Русские (форсированные, полные), английские
General
Unique ID : 73347581934629731687641737977982079167 (0x372E3AFE1772687C39AD823FA5BBD0BF)
Complete name : F:Alita.Battle.Angel.2019.BDRip.1080p.mkv
Format : Matroska
Format version : Version 4
File size : 10.5 GiB
Duration : 2 h 1 min
Overall bit rate : 12.3 Mb/s
Encoded date : UTC 2019-07-11 21:46:10
Writing application : mkvmerge v35.0.0 ('All The Love In The World') 64-bit
Writing library : libebml v1.3.9 + libmatroska v1.5.2

Video
ID : 1
Format : AVC
Format/Info : Advanced Video Codec
Format profile : High@L4.1
Format settings : CABAC / 5 Ref Frames
Format settings, CABAC : Yes
Format settings, Reference : 5 frames
Codec ID : V_MPEG4/ISO/AVC
Duration : 2 h 1 min
Bit rate : 10.0 Mb/s
Width : 1 920 pixels
Height : 808 pixels
Display aspect ratio : 2.40:1
Frame rate mode : Constant
Frame rate : 23.976 (24000/1001) FPS
Color space : YUV
Chroma subsampling : 4:2:0
Bit depth : 8 bits
Scan type : Progressive
Bits/(Pixel*Frame) : 0.270
Stream size : 8.55 GiB (81%)
Writing library : x264 core 157 r2970 5493be8
Encoding settings : cabac=1 / ref=5 / deblock=1:-3:-3 / analyse=0x3:0x113 / me=umh / subme=8 / psy=1 / psy_rd=1.00:0.00 / mixed_ref=1 / me_range=16 / chroma_me=1 / trellis=1 / 8x8dct=1 / cqm=0 / deadzone=21,11 / fast_pskip=1 / chroma_qp_offset=-2 / threads=25 / lookahead_threads=4 / sliced_threads=0 / nr=0 / decimate=1 / interlaced=0 / bluray_compat=0 / constrained_intra=0 / bframes=3 / b_pyramid=2 / b_adapt=1 / b_bias=0 / direct=3 / weightb=1 / open_gop=0 / weightp=2 / keyint=250 / keyint_min=23 / scenecut=40 / intra_refresh=0 / rc_lookahead=50 / rc=2pass / mbtree=1 / bitrate=10039 / ratetol=1.0 / qcomp=0.60 / qpmin=0 / qpmax=69 / qpstep=4 / cplxblur=20.0 / qblur=0.5 / ip_ratio=1.40 / aq=1:1.00
Language : English
Default : Yes
Forced : No

Audio #1
ID : 2
Format : AC-3
Format/Info : Audio Coding 3
Commercial name : Dolby Digital
Codec ID : A_AC3
Duration : 2 h 1 min
Bit rate mode : Constant
Bit rate : 384 kb/s
Channel(s) : 6 channels
Channel layout : L R C LFE Ls Rs
Sampling rate : 48.0 kHz
Frame rate : 31.250 FPS (1536 SPF)
Bit depth : 16 bits
Compression mode : Lossy
Stream size : 335 MiB (3%)
Title : iTunes
Language : Russian
Service kind : Complete Main
Default : Yes
Forced : Yes

Audio #2
ID : 3
Format : AC-3
Format/Info : Audio Coding 3
Commercial name : Dolby Digital
Codec ID : A_AC3
Duration : 2 h 1 min
Bit rate mode : Constant
Bit rate : 192 kb/s
Channel(s) : 2 channels
Channel layout : L R
Sampling rate : 48.0 kHz
Frame rate : 31.250 FPS (1536 SPF)
Bit depth : 16 bits
Compression mode : Lossy
Stream size : 167 MiB (2%)
Title : MVO [СВ Студия]
Language : Russian
Service kind : Complete Main
Default : No
Forced : No

Audio #3
ID : 4
Format : AC-3
Format/Info : Audio Coding 3
Commercial name : Dolby Digital
Codec ID : A_AC3
Duration : 2 h 1 min
Bit rate mode : Constant
Bit rate : 192 kb/s
Channel(s) : 2 channels
Channel layout : L R
Sampling rate : 48.0 kHz
Frame rate : 31.250 FPS (1536 SPF)
Bit depth : 16 bits
Compression mode : Lossy
Stream size : 167 MiB (2%)
Title : MVO [HDRezka Studio]
Language : Russian
Service kind : Complete Main
Default : No
Forced : No

Audio #4
ID : 5
Format : DTS ES
Format/Info : Digital Theater Systems
Commercial name : DTS-ES Matrix
Codec ID : A_DTS
Duration : 2 h 1 min
Bit rate mode : Constant
Bit rate : 1 509 kb/s
Channel(s) : 6 channels
Channel(s)_Original : 7 channels
ChannelLayout_Original : C L R Ls Rs Cs LFE
Sampling rate : 48.0 kHz
Frame rate : 93.750 FPS (512 SPF)
Bit depth : 24 bits
Compression mode : Lossy
Stream size : 1.29 GiB (12%)
Title : Original
Language : English
Default : No
Forced : No

Text #1
ID : 6
Format : UTF-8
Codec ID : S_TEXT/UTF8
Codec ID/Info : UTF-8 Plain Text
Duration : 2 s 544 ms
Bit rate : 251 b/s
Count of elements : 1
Stream size : 80.0 Bytes (0%)
Title : Forced
Language : Russian
Default : Yes
Forced : Yes

Text #2
ID : 7
Format : UTF-8
Codec ID : S_TEXT/UTF8
Codec ID/Info : UTF-8 Plain Text
Duration : 1 h 56 min
Bit rate : 64 b/s
Count of elements : 1318
Stream size : 55.4 KiB (0%)
Title : Full
Language : Russian
Default : No
Forced : No

Text #3
ID : 8
Format : UTF-8
Codec ID : S_TEXT/UTF8
Codec ID/Info : UTF-8 Plain Text
Duration : 1 h 56 min
Bit rate : 46 b/s
Count of elements : 1590
Stream size : 39.5 KiB (0%)
Title : SDH
Language : English
Default : No
Forced : No

Menu
00:00:00.000 : en:Chapter 01
00:03:28.625 : en:Chapter 02
00:07:51.680 : en:Chapter 03
00:10:07.982 : en:Chapter 04
00:13:06.703 : en:Chapter 05
00:15:06.739 : en:Chapter 06
00:18:04.542 : en:Chapter 07
00:22:58.711 : en:Chapter 08
00:25:35.325 : en:Chapter 09
00:31:40.899 : en:Chapter 10
00:33:29.216 : en:Chapter 11
00:36:32.816 : en:Chapter 12
00:38:30.892 : en:Chapter 13
00:42:05.481 : en:Chapter 14
00:45:58.214 : en:Chapter 15
00:48:31.450 : en:Chapter 16
00:52:57.007 : en:Chapter 17
00:55:14.353 : en:Chapter 18
01:00:39.761 : en:Chapter 19
01:02:56.564 : en:Chapter 20
01:05:16.788 : en:Chapter 21
01:10:50.496 : en:Chapter 22
01:13:37.288 : en:Chapter 23
01:16:35.216 : en:Chapter 24
01:18:52.227 : en:Chapter 25
01:22:48.297 : en:Chapter 26
01:24:55.340 : en:Chapter 27
01:28:25.217 : en:Chapter 28
01:33:18.551 : en:Chapter 29
01:36:08.763 : en:Chapter 30
01:41:54.692 : en:Chapter 31
01:45:23.442 : en:Chapter 32
01:48:16.490 : en:Chapter 33
01:51:43.655 : en:Chapter 34
01:54:43.668 : en:Chapter 35
01:56:51.504 : en:Chapter 36
Источник http://BlaTor.org

Трекер:  [ 12-Июл-2019 01:50 ]

  

Скачать .torrent

Размер .torrent файла 13 KB


Размер: 10.49 GB
Хэш (hash) релиза: a58f4cff83206265e09bc71b5ee506bf5c54170a
Подписка на обновления:

Торренты, похожие на Алита: Боевой ангел Alita: Battle Angel скачать торрент

Форум Название Автор Размер S L Добавлен
Зарубежные фильмы 2016-2018 (Новинки зарубежного кино) ·%· Алита: Боевой ангел / Alita: Battle Angel (2019) BDRip от HQ-ViDEO | Локализованная версия | Лицензия Galfimbul 23424655362.18 GB 3 0 1573410624

21:30

10-Ноя-19

Зарубежные фильмы 2016-2018 (Новинки зарубежного кино) ·%· Алита: Боевой ангел / Alita: Battle Angel (2019) UHD BDRip-HEVC 1080p от HEVC-CLUB | SDR | Локализованная версия | Лицензия Galfimbul 75723066727.05 GB 2 0 1572846639

08:50

4-Ноя-19

Зарубежные фильмы 2016-2018 (Новинки зарубежного кино) ·%· Алита: Боевой ангел / Alita: Battle Angel (2019) UHD BDRip-HEVC 2160p | 4K | HDR10+ | D, P | Лицензия Galfimbul 1447612005313.48 GB 0 0 1569090611

21:30

21-Сен-19

Зарубежные фильмы 2016-2018 (Новинки зарубежного кино) ·%· Алита: Боевой ангел / Alita: Battle Angel (2019) BDRip-HEVC 1080p от NoMaD | D | Локализованная версия | Лицензия Galfimbul 61715491855.75 GB 2 0 1564932615

18:30

4-Авг-19

Зарубежные фильмы 2016-2018 (Новинки зарубежного кино) ·%· Алита: Боевой ангел / Alita: Battle Angel (2019) UHD BDRemux 2160p от ExKinoRay | 4K | HDR | Dolby Vision TV | D, P | Локализованная версия | Лицензия Galfimbul 4033195845637.56 GB 0 0 1564759885

18:31

2-Авг-19

Зарубежные фильмы 2016-2018 (Новинки зарубежного кино) ·%· Алита: Боевой ангел / Alita: Battle Angel (2019) BDRip-HEVC 720p | Локализованная версия | Лицензия Galfimbul 29930801082.79 GB 2 0 1564387226

11:00

29-Июл-19

Зарубежные фильмы 2016-2018 (Новинки зарубежного кино) ·%· Алита: Боевой ангел / Alita: Battle Angel (2019) BDRip-HEVC 720p | Локализованная версия | D, P | Лицензия Galfimbul 42758721233.98 GB 0 0 1564254614

22:10

27-Июл-19

Зарубежные фильмы 2016-2018 (Новинки зарубежного кино) ·%· Алита: Боевой ангел / Alita: Battle Angel (2019) WEB-DLRip-HEVC 720p | D | Open Matte Galfimbul 33751171293.14 GB 0 0 1563870141

11:22

23-Июл-19

Зарубежные фильмы 2016-2018 (Новинки зарубежного кино) ·%· Алита: Боевой ангел / Alita: Battle Angel (2019) UHD BDRemux 2160p от ExKinoRay | 4K | HDR | Dolby Vision | Локализованная версия | Лицензия Galfimbul 4037538259337.6 GB 0 0 1563669033

03:30

21-Июл-19

Зарубежные фильмы 2016-2018 (Новинки зарубежного кино) ·%· Алита: Боевой ангел / Alita: Battle Angel (2019) BDRip 720p от ExKinoRay | Локализованная версия | Лицензия, P Galfimbul 98990176649.22 GB 2 0 1563403859

01:50

18-Июл-19

Зарубежные фильмы 2016-2018 (Новинки зарубежного кино) ·%· Алита: Боевой ангел / Alita: Battle Angel (2019) BDRip от Twister & ExKinoRay | Локализованная версия | Лицензия Galfimbul 15723985001.46 GB 2 0 1563394372

23:12

17-Июл-19

Зарубежные фильмы 2016-2018 (Новинки зарубежного кино) ·%· Алита: Боевой ангел / Alita: Battle Angel (2019) BDRip от Twister & ExKinoRay | Локализованная версия | Лицензия Galfimbul 23439346862.18 GB 2 0 1563394310

23:11

17-Июл-19

Российские фильмы 2016-2018 (Новинки русского кино) ·%· Алита Боевой ангел / Alita: Battle Angel (2019) BDRip 1080p от Generalfilm [Лицензия] Galfimbul 71811261826.69 GB 0 0 1563313820

00:50

17-Июл-19

Зарубежные фильмы 2016-2018 (Новинки зарубежного кино) ·%· Алита: Боевой ангел / Alita: Battle Angel (2019) BDRip 1080p от Ash61 | 3D-Video | halfOU | Лицензия Galfimbul 1347362361012.55 GB 0 0 1563246013

06:00

16-Июл-19

Зарубежные фильмы 2016-2018 (Новинки зарубежного кино) ·%· Алита: Боевой ангел / Alita: Battle Angel (2019) UHD BDRemux 2160p от ExKinoray | 4K | HDR | D, P | Лицензия Galfimbul 4497115128541.88 GB 0 0 1563232815

02:20

16-Июл-19

Зарубежные фильмы 2016-2018 (Новинки зарубежного кино) ·%· Алита: Боевой ангел / Alita: Battle Angel (2019) BDRip-HEVC 1080p от HANNIBAL | Лицензия Galfimbul 89358656058.32 GB 0 0 1563223256

23:40

15-Июл-19

Зарубежные фильмы 2016-2018 (Новинки зарубежного кино) ·%· Алита: Боевой ангел / Alita: Battle Angel (2019) BDRip 1080p от селезень | 3D-Video | HSBS | D, P | Лицензия Galfimbul 1560464737614.53 GB 0 0 1563204020

18:20

15-Июл-19

Зарубежные фильмы 2016-2018 (Новинки зарубежного кино) ·%· Алита: Боевой ангел / Alita: Battle Angel (2019) BDRemux 1080p от селезень | 3D-Video | Лицензия Galfimbul 4128079872038.45 GB 0 0 1563172253

09:30

15-Июл-19

Зарубежные фильмы 2016-2018 (Новинки зарубежного кино) ·%· Алита: Боевой ангел / Alita: Battle Angel (2019) BDRip-AVC от ExKinoRay | Лицензия Galfimbul 781901299746 MB 0 0 1563167430

08:10

15-Июл-19

Зарубежные фильмы 2016-2018 (Новинки зарубежного кино) ·%· Алита: Боевой ангел / Alita: Battle Angel (2019) BDRip-AVC от HELLYWOOD | Локализованная версия | Лицензия Galfimbul 61832908195.76 GB 0 0 1563160222

06:10

15-Июл-19

Еще никто не оставлял запись к записи скачать торрент Алита: Боевой ангел Alita: Battle Angel . Будь первым!

!Обратная связь