Скачать через торрент Если бы да кабы Фильм бесплатно в хорошем качестве torrent

Скачивайте на UnionPeer.org фильмы через торрент без регистрации. Новинки кино в хорошем качестве через торрент. На UnionPeer.org можно скачать через торрент фильмы 2014 и 2015 годов. Самые новые фильмы.

Скачать торрент Если бы да кабы бесплатно через .torrent фильм мультфильм сериал

Статистика раздачи
Размер:  1.45 GB   |    Зарегистрирован:  11 месяцев   |    .torrent скачан:  52 раза   |   
Раздают:  1  
 

Скачать Если бы да кабы (2016) HDTVRip от GeneralFilm через torrent

 
Timeweb Many GEOs Sprinthost
загрузка...
 
Автор Сообщение

Galfimbul ghost

avatar Galfimbul ghost


Оригинальное название: Если бы да кабы
Год выпуска: 2016
Жанр: Комедия, мелодрама
Выпущено: Украина, Россия, Кинокомпания "Star Media"
Режиссер: Олег Туранский
В ролях: Олеся Фаттахова, Тимофей Каратаев, Анастасия Задорожная, Дмитрий Шаракоис, Анна Кузина, Игорь Пазыч

О фильме: Почему умирает любовь? Почему раньше тебе казалось, что ты встретила Его, «единственного и неповторимого», а сейчас ты не вспомнишь день своего первого свидания? Почему, думая о прошлом, ты считаешь, что совершила ошибку, и грустно вздыхаешь: вот если бы… 35-летней Екатерине Колесниковой кажется, что жизнь не задалась: вместо Миланского подиума – фабрика по пошиву спецодежды. А некогда яркий и талантливый муж-музыкант превратился в унылого районного фининспектора? И… Судьба дает Кате шанс вернуться на 17 лет назад и попытаться изменить свою жизнь. Но сделает ли это ее счастливой?


Качество: HDTVRip
Видео: XviD build 73, 720x400 (16:9), 25.000 fps, 1938 Kbps (0.269 bit/pixel)
Аудио: 48.0 kHz, AC3, 2/0 ch, 192 kbps
Продолжительность: 01:37:16
Перевод: Не требуется [Русский]
Cубтитры: нет
General
Complete name : D:RazdachiEsli.By.Da.Kaby.2016.HDTVRip.GeneralFilm.avi
Format : AVI
Format/Info : Audio Video Interleave
File size : 1.45 GiB
Duration : 1 h 37 min
Overall bit rate : 2 140 kb/s
Writing application : VirtualDubMod 1.5.10.3 | www.virtualdub-fr.org || (build 2550/release)
Writing library : VirtualDubMod build 2550/release

Video
ID : 0
Format : MPEG-4 Visual
Format profile : Advanced Simple@L5
Format settings : BVOP1 / Custom Matrix
Format settings, BVOP : 1
Format settings, QPel : No
Format settings, GMC : No warppoints
Format settings, Matrix : Custom
Codec ID : XVID
Codec ID/Hint : XviD
Duration : 1 h 37 min
Bit rate : 1 938 kb/s
Width : 720 pixels
Height : 400 pixels
Display aspect ratio : 16:9
Frame rate : 25.000 FPS
Color space : YUV
Chroma subsampling : 4:2:0
Bit depth : 8 bits
Scan type : Progressive
Compression mode : Lossy
Bits/(Pixel*Frame) : 0.269
Stream size : 1.32 GiB (91%)
Writing library : XviD 73

Audio
ID : 1
Format : AC-3
Format/Info : Audio Coding 3
Commercial name : Dolby Digital
Codec ID : 2000
Duration : 1 h 37 min
Bit rate mode : Constant
Bit rate : 192 kb/s
Channel(s) : 2 channels
Channel layout : L R
Sampling rate : 48.0 kHz
Frame rate : 31.250 FPS (1536 SPF)
Bit depth : 16 bits
Compression mode : Lossy
Stream size : 134 MiB (9%)
Alignment : Split accross interleaves
Interleave, duration : 40 ms (1.00 video frame)
Interleave, preload duratio : 500 ms
Service kind : Complete Main
Релиз от:
Источник http://BlaTor.org

Внимание! AdBlock блокирует показ скриншотов, все вопросы к разработчикам )))
Трекер:  [ 14-Июл-2019 18:20 ]

  

Скачать .torrent

Размер .torrent файла 15 KB


Размер: 1.45 GB
Хэш (hash) релиза: b2c51301108db76f73e1d760c329dd58206da549
Подписка на обновления:
Superjob
dpd RU

Еще никто не оставлял запись к записи скачать торрент Если бы да кабы . Будь первым!

!Обратная связь