Скачать через торрент Джон Уик 3 John Wick: Chapter 3 - Parabellum Фильм бесплатно в хорошем качестве torrent

Скачивайте на UnionPeer.org фильмы через торрент без регистрации. Новинки кино в хорошем качестве через торрент. На UnionPeer.org можно скачать через торрент фильмы 2014 и 2015 годов. Самые новые фильмы.

Скачать торрент Джон Уик 3 John Wick: Chapter 3 - Parabellum бесплатно через .torrent фильм мультфильм сериал

Статистика раздачи
Размер:  1.48 GB   |    Зарегистрирован:  4 месяца 25 дней   |    .torrent скачан:  656 раз   |   
Раздают:  2  
 

Скачать Джон Уик 3 / John Wick: Chapter 3 - Parabellum (2019) WEBRip-AVC | HDRezka Studio через torrent

 
загрузка...
 
Автор Сообщение

Galfimbul

avatar Galfimbul


Джон Уик 3 /John Wick: Chapter 3 - Parabellum

Год выхода: 2019
Жанр: боевик, триллер, криминал
Режиссер: Чад Стахелски
В ролях: Киану Ривз, Холли Берри, Иэн МакШейн, Лоуренс Фишборн, Марк Дакаскос, Азия Диллон, Лэнс Реддик, Тобиаш Сигал, Анжелика Хьюстон, Саид Тагмауи

О фильме:
Суперкиллер Джон Уик после нарушения кодекса тайной гильдии ассасинов получает статус изгоя — экскомьюникадо. За его голову назначена цена в 14 миллионов долларов, и армия самых жестоких профессиональных убийц со всего мира открывает на него кровавую охоту.

Страна: США
Студия: Summit Entertainment, 87Eleven, Lionsgate
Продолжительность: 02:10:45
Перевод: Профессиональный (многоголосый, закадровый) | HDRezka Studio

Файл
Качество: WEBRip-AVC | CMRG
Видео: AVC/H.264, 720x292, 1231 Кbps, 23,976 fps
Звук:
Аудио 1: AC3, 2 ch, 192 Kbps - Русский
Аудио 2: AC3, 2 ch, 192 Kbps - Английский
Субтитры: Английские (форс - хардсаб, SDH)
Общее
Уникальный идентификатор : 283276698108253690352482345805561408671 (0xD51D1B87F690622F7C79880111232C9F)
Полное имя : Джон Уик_3.2019.WEBRip.mkv
Формат : Matroska
Версия формата : Version 4
Размер файла : 1,48 Гбайт
Продолжительность : 2 ч. 10 м.
Общий поток : 1616 Кбит/сек
Дата кодирования : UTC 2019-07-18 11:35:07
Программа кодирования : mkvmerge v23.0.0 ('The Bride Said No') 64-bit
Библиотека кодирования : libebml v1.3.6 + libmatroska v1.4.9

Видео
Идентификатор : 1
Формат : AVC
Формат/Информация : Advanced Video Codec
Профиль формата : High@L4.1
Настройки формата : CABAC / 4 Ref Frames
Параметр CABAC формата : Да
Параметр RefFrames формата : 4 кадра
Идентификатор кодека : V_MPEG4/ISO/AVC
Продолжительность : 2 ч. 10 м.
Битрейт : 1231 Кбит/сек
Ширина : 720 пикселей
Высота : 292 пикселя
Соотношение сторон : 2,466
Режим частоты кадров : Постоянный
Частота кадров : 23,976 (24000/1001) кадра/сек
Цветовое пространство : YUV
Субдискретизация насыщенности : 4:2:0
Битовая глубина : 8 бит
Тип развёртки : Прогрессивная
Бит/(Пиксели*Кадры) : 0.244
Размер потока : 1,12 Гбайт (76%)
Заголовок : CMRG
Библиотека кодирования : x264 core 155 r2901 7d0ff22
Настройки программы : cabac=1 / ref=3 / deblock=1:-1:-1 / analyse=0x3:0x113 / me=hex / subme=7 / psy=1 / psy_rd=1.00:0.15 / mixed_ref=1 / me_range=16 / chroma_me=1 / trellis=1 / 8x8dct=1 / cqm=0 / deadzone=21,11 / fast_pskip=1 / chroma_qp_offset=-3 / threads=90 / lookahead_threads=2 / sliced_threads=0 / nr=0 / decimate=1 / interlaced=0 / bluray_compat=0 / constrained_intra=0 / bframes=3 / b_pyramid=2 / b_adapt=1 / b_bias=0 / direct=1 / weightb=1 / open_gop=0 / weightp=2 / keyint=250 / keyint_min=23 / scenecut=40 / intra_refresh=0 / rc_lookahead=40 / rc=abr / mbtree=1 / bitrate=1231 / ratetol=1.0 / qcomp=0.60 / qpmin=0 / qpmax=69 / qpstep=4 / ip_ratio=1.40 / aq=1:1.00
Язык : English
Default : Да
Forced : Нет

Аудио #1
Идентификатор : 2
Формат : AC-3
Формат/Информация : Audio Coding 3
Коммерческое название : Dolby Digital
Идентификатор кодека : A_AC3
Продолжительность : 2 ч. 10 м.
Вид битрейта : Постоянный
Битрейт : 192 Кбит/сек
Каналы : 2 канала
ChannelLayout : L R
Частота : 48,0 КГц
Частота кадров : 31,250 кадров/сек (1536 SPF)
Битовая глубина : 16 бит
Метод сжатия : С потерями
Размер потока : 180 Мбайт (12%)
Заголовок : MVO | HDRezka Studio
Язык : Russian
ServiceKind : Complete Main
Default : Да
Forced : Нет

Аудио #2
Идентификатор : 3
Формат : AC-3
Формат/Информация : Audio Coding 3
Коммерческое название : Dolby Digital
Идентификатор кодека : A_AC3
Продолжительность : 2 ч. 10 м.
Вид битрейта : Постоянный
Битрейт : 192 Кбит/сек
Каналы : 2 канала
ChannelLayout : L R
Частота : 48,0 КГц
Частота кадров : 31,250 кадров/сек (1536 SPF)
Битовая глубина : 16 бит
Метод сжатия : С потерями
Размер потока : 180 Мбайт (12%)
Язык : English
ServiceKind : Complete Main
Default : Нет
Forced : Нет

Текст
Идентификатор : 4
Формат : UTF-8
Идентификатор кодека : S_TEXT/UTF8
Идентификатор кодека/Информация : UTF-8 Plain Text
Продолжительность : 2 ч. 9 м.
Битрейт : 29 бит/сек
ElementCount : 1142
Размер потока : 27,9 Кбайт (0%)
Язык : English
Default : Нет
Forced : Нет
Источник http://BlaTor.org

Трекер:  [ 18-Июл-2019 15:10 ]

  

Скачать .torrent

Размер .torrent файла 15 KB


Размер: 1.48 GB
Хэш (hash) релиза: 169eedc8474da054e8a724d5739fd413ddd698c9
Подписка на обновления:

Торренты, похожие на Джон Уик 3 John Wick: Chapter 3 - Parabellum скачать торрент

Форум Название Автор Размер S L Добавлен
Зарубежные фильмы 2016-2018 (Новинки зарубежного кино) ·%· Джон Уик 3 / John Wick: Chapter 3 - Parabellum (2019) BDRip-AVC от HELLYWOOD | iTunes Galfimbul 30586707292.85 GB 2 1 1576048227

10:10

11-Дек-19

Зарубежные фильмы 2016-2018 (Новинки зарубежного кино) ·%· Джон Уик 3 / John Wick: Chapter 3 - Parabellum (2019) DVD5 | iTunes Galfimbul 46781317124.36 GB 0 0 1572094219

15:50

26-Окт-19

Зарубежные фильмы 2016-2018 (Новинки зарубежного кино) ·%· Джон Уик 3 / John Wick: Chapter 3 - Parabellum (2019) DVD9 | D, A | iTunes Galfimbul 81130618887.56 GB 2 0 1571931609

18:40

24-Окт-19

Зарубежные фильмы 2016-2018 (Новинки зарубежного кино) ·%· Джон Уик 3 / John Wick: Chapter 3 - Parabellum (2019) BDRemux 1080p | D, P, A | US Transfer Galfimbul 3157914623429.41 GB 0 0 1567660811

08:20

5-Сен-19

Зарубежные фильмы 2016-2018 (Новинки зарубежного кино) ·%· Джон Уик 3 / John Wick: Chapter 3 - Parabellum (2019) WEBRip | HDRezka Studio Galfimbul 15768487121.47 GB 6 0 1563460809

17:40

18-Июл-19

Зарубежные фильмы 2016-2018 (Новинки зарубежного кино) ·%· Джон Уик 3 / John Wick: Chapter 3 - Parabellum (2019) WEB-DLRip от Enigma | Sub Galfimbul 14781521921.38 GB 0 0 1563324014

03:40

17-Июл-19

Зарубежные фильмы 2016-2018 (Новинки зарубежного кино) ·%· Джон Уик 3 / John Wick: Chapter 3 - Parabellum (2019) TS | D Galfimbul 14680145921.37 GB 2 0 1558860060

11:41

26-Май-19

Зарубежные фильмы 2016-2018 (Новинки зарубежного кино) ·%· Джон Уик 3 / John Wick: Chapter 3 - Parabellum (2019) HDRip 1080p | Трейлер Galfimbul 513448409490 MB 0 0 1549024212

15:30

1-Фев-19

Еще никто не оставлял запись к записи скачать торрент Джон Уик 3 John Wick: Chapter 3 - Parabellum . Будь первым!

!Обратная связь