Скачать через торрент Один день лета Фильм бесплатно в хорошем качестве torrent

Скачивайте на UnionPeer.org фильмы через торрент без регистрации. Новинки кино в хорошем качестве через торрент. На UnionPeer.org можно скачать через торрент фильмы 2014 и 2015 годов. Самые новые фильмы.

Скачать торрент Один день лета бесплатно через .torrent фильм мультфильм сериал

Статистика раздачи
Размер:  4.85 GB   |    Зарегистрирован:  1 месяц 27 дней   |    .torrent скачан:  49 раз   |   
Раздают:  1  
   
загрузка...
 
Автор Сообщение

Galfimbul

avatar Galfimbul


Один день лета


Год выпуска: 2018
Страна: Россия
Студия: Продюсерский центр «СПбГИКиТ-Дебют»
Жанр: Комедия, музыка, мелодрама
Перевод: Не требуется
Продолжительность: 01:36:21
Режиссер: Александр Игудин
В ролях: Татьяна Бабенкова (Катя), Алекс Коморовски (Андрей), Степан Ледков, Андрей Носков, Юрий Гальцев, Максим Леонидов, Иван Краско, Эра Зиганшина, Анастасия Лазо (Надя), Алексей Копылов, Маргарита Аброськина (Лена), Игорь Иванов
Описание:
Вся жизнь недавней провинциалки, а теперь москвички Кати - одно сплошное селфи с чередой знаменитостей. Любые интриги ради лайка, любые подвиги во имя статуса «звезды инстаграм». Но количества подписчиков по-прежнему недостаточно, и ради заветной цели она отправляется в Санкт-Петербург, чтобы сделать селфи с загадочным художником, скрывающим свою личность, и тем самым взорвать интернет. А в это время в аэропорту солидный незнакомец просит Катю передать неизвестному ей адресату обычный конверт.
Рейтинг:
Качество: HDTV 1080p
Формат: MKV
Видео: AVC, 1920x1080 (16:9), 7050 kbps, 25 fps, 0,136 bpp
Аудио: AC3 / 2.0 / 48 kHz / 192 kbps /
General
Unique ID : 190355271422618306152666180261196377542 (0x8F35177BA60B411880B4325F599CADC6)
Complete name : E:Запись с твOdin den leta.2019.HDTV 1080p.by.White Smoke.R.G.Generalfilm.mkv
Format : Matroska
Format version : Version 4 / Version 2
File size : 4.85 GiB
Duration : 1 h 36 min
Overall bit rate mode : Constant
Overall bit rate : 7 210 kb/s
Movie name : Odin den leta.2019.HDTV 1080p.by.White Smoke.R.G.Generalfilm.mkv
Encoded date : UTC 2019-07-20 13:02:39
Writing application : mkvmerge v6.8.0 ('Theme for Great Cities') 64bit built on Mar 2 2014 21:34:26
Writing library : libebml v1.3.0 + libmatroska v1.4.1

Video
ID : 1
Format : AVC
Format/Info : Advanced Video Codec
Format profile : High@L4.1
Format settings, CABAC : Yes
Format settings, ReFrames : 3 frames
Codec ID : V_MPEG4/ISO/AVC
Duration : 1 h 36 min
Bit rate mode : Constant
Bit rate : 7 051 kb/s
Width : 1 920 pixels
Height : 1 080 pixels
Display aspect ratio : 16:9
Frame rate mode : Constant
Frame rate : 25.000 FPS
Standard : PAL
Color space : YUV
Chroma subsampling : 4:2:0
Bit depth : 8 bits
Scan type : Progressive
Bits/(Pixel*Frame) : 0.136
Stream size : 4.63 GiB (95%)
Default : Yes
Forced : No
Color range : Limited
Color primaries : BT.709
Transfer characteristics : BT.709
Matrix coefficients : BT.709

Audio
ID : 2
Format : AC-3
Format/Info : Audio Coding 3
Mode extension : CM (complete main)
Format settings, Endianness : Big
Codec ID : A_AC3
Duration : 1 h 36 min
Bit rate mode : Constant
Bit rate : 192 kb/s
Channel(s) : 2 channels
Channel positions : Front: L R
Sampling rate : 48.0 kHz
Frame rate : 31.250 FPS (1536 spf)
Compression mode : Lossy
Stream size : 132 MiB (3%)
Default : Yes
Forced : No
Источник http://BlaTor.org

Трекер:  [ 20-Июл-2019 19:50 ]

  

Скачать .torrent

Размер .torrent файла 12 KB


Размер: 4.85 GB
Хэш (hash) релиза: 6c2f40c5a0768ea726513ca2c4f5e6c2cd3a69e8
Подписка на обновления:

Торренты, похожие на Один день лета скачать торрент

Форум Название Автор Размер S L Добавлен
Российские фильмы 2016-2018 (Новинки русского кино) ·%· Один день лета (2018) WEBRip 720p от ExKinoRay Galfimbul 30879853092.88 GB 0 0 1563697900

11:31

21-Июл-19

Российские фильмы 2016-2018 (Новинки русского кино) ·%· Один день лета (2018) WEBRip от GeneralFilm Galfimbul 15619727361.45 GB 0 0 1563639171

19:12

20-Июл-19

Российские фильмы 2016-2018 (Новинки русского кино) ·%· Один день лета (2019) WEBRip-AVC от Files-x Galfimbul 14684939471.37 GB 2 0 1563583920

03:52

20-Июл-19

Российские фильмы 2016-2018 (Новинки русского кино) ·%· Один день лета (2019) WEBRip от Files-x Galfimbul 14748487681.37 GB 0 0 1563582612

03:30

20-Июл-19

Документальные фильмы и телепередачи ·· Александр Шалимов. Сто лет как один день (Ольга Лазебник) [2018, биография, документальный, DVB] Galfimbul 14101419401.31 GB 0 0 1516601606

09:13

22-Янв-18

Документальные фильмы и телепередачи ·· Военно Воздушные Силы. 100 лет и один день (Георгий Ратушев) [2012, документальный, SATRip-AVC] L 1015394221968 MB 0 0 1362433277

00:41

5-Мар-13

Документальные фильмы и телепередачи ·· Крылья России, Военно Воздушные Силы. 100 лет и один день, 4 фильма из 4 (Георгий Ратушев) [2012, Документальный, авиация, DVB] Galfimbul 49656995844.62 GB 0 0 1362253144

22:39

2-Мар-13

Документальные фильмы и телепередачи ·· Крылья России, Военно-Воздушные Силы. 100 лет и один день (4 серии из 4) (Георгий Ратушев, Киностудия «Крылья России») [2012, Документальный, авиация, DVBRip] Galfimbul 20871884801.94 GB 0 0 1362253132

22:38

2-Мар-13

Документальные фильмы и телепередачи ·· "Один день Ивана Денисовича". 50 лет спустя... (Алексей Денисов) [2012, Документальный, DVB] Galfimbul 563208192537 MB 0 0 1361828845

00:47

26-Фев-13

Документальные фильмы и телепередачи ·· "Один день Ивана Денисовича". 50 лет спустя... (Алексей Денисов) [2012, Документальный, SATRip] Galfimbul 620232158591 MB 0 0 1361828819

00:46

26-Фев-13

Документальные фильмы и телепередачи ·· Один день Ивана Денисовича. 50 лет спустя (Алексей Денисов) [2012, документальный, SATRip-AVC] Galfimbul 281536735268 MB 0 0 1361828785

00:46

26-Фев-13

Российские фильмы до 2016 ·· Пять лет и один день (Борис Квашнев) [2012, Драма, SATRip] Galfimbul 735010816701 MB 0 0 1352812080

16:08

13-Ноя-12

Еще никто не оставлял запись к записи скачать торрент Один день лета . Будь первым!

!Обратная связь