Скачать через торрент Потерянное звено Missing Link Фильм бесплатно в хорошем качестве torrent

Скачивайте на UnionPeer.org фильмы через торрент без регистрации. Новинки кино в хорошем качестве через торрент. На UnionPeer.org можно скачать через торрент фильмы 2014 и 2015 годов. Самые новые фильмы.

Скачать торрент Потерянное звено Missing Link бесплатно через .torrent фильм мультфильм сериал

Статистика раздачи
Размер:  3.05 GB   |    Зарегистрирован:  28 дней   |    .torrent скачан:  120 раз   |   
Раздают:  5  
   
загрузка...
 
Автор Сообщение

Galfimbul

avatar Galfimbul


Потерянное звено / Missing Link

Год выпуска: 2019
Жанр: Мультфильм, фэнтези, комедия, приключения, семейный
Выпущено: США, Канада, Laika Entertainment
Режиссер: Крис Батлер
В ролях: Хью Джекман, Дэвид Уоллиамс, Стивен Фрай, Мэтт Лукас, Зак Галифианакис, Тимоти Олифант, Зои Салдана, Эмма Томпсон, Амрита Ачария, Чинг Валдес-Аран

О фильме: Бесстрашный натуралист и исследователь Лайонел Фрост поставил перед собой задачу рассказать миру о существовании разных созданий, о которых говорят только в легендах. Его новым открытием становится Линк, так называемое «недостающее звено», связывающее человечество с его предками по эволюционной лестнице.



Качество: BDRip (720p)
Видео: MPEG-4 AVC, 2920 Кбит/с, 1280x534, 23.976 кадр/с
Аудио: Русский (AC3, 2 ch, 192 Кбит/с), английский (DTS, 6 ch, 1509 Кбит/с)
Размер: 3.05 ГБ
Продолжительность: 01:34:26
Перевод: Профессиональный многоголосый
Субтитры: Английские

Озвучивание - Профессиональное многоголосое (HDRezka Studio)
Сохранены оригинальные чаптеры как на Blu-Ray.
x264 [info]: frame I:1252 Avg QP:14.31 size:124148
x264 [info]: frame P:32822 Avg QP:17.76 size: 31466
x264 [info]: frame B:101766 Avg QP:19.17 size: 8646
x264 [info]: consecutive B-frames: 4.1% 4.9% 9.4% 20.6% 17.8% 30.4% 6.1% 2.4% 1.6% 0.8% 1.8%
x264 [info]: mb I I16..4: 5.5% 74.2% 20.3%
x264 [info]: mb P I16..4: 0.8% 9.6% 1.6% P16..4: 32.2% 30.8% 14.0% 2.8% 0.5% skip: 7.8%
x264 [info]: mb B I16..4: 0.1% 1.0% 0.2% B16..8: 28.5% 18.7% 3.8% direct: 4.5% skip:43.2% L0:44.6% L1:41.2% BI:14.2%
x264 [info]: 8x8 transform intra:78.4% inter:53.9%
x264 [info]: direct mvs spatial:97.8% temporal:2.2%
x264 [info]: coded y,uvDC,uvAC intra: 85.4% 90.0% 75.8% inter: 17.6% 24.8% 15.0%
x264 [info]: i16 v,h,dc,p: 23% 12% 8% 57%
x264 [info]: i8 v,h,dc,ddl,ddr,vr,hd,vl,hu: 15% 10% 9% 8% 11% 11% 11% 11% 14%
x264 [info]: i4 v,h,dc,ddl,ddr,vr,hd,vl,hu: 22% 9% 7% 8% 13% 12% 11% 9% 11%
x264 [info]: i8c dc,h,v,p: 39% 25% 19% 16%
x264 [info]: Weighted P-Frames: Y:3.8% UV:2.2%
x264 [info]: ref P L0: 50.6% 10.0% 16.5% 6.1% 5.1% 3.7% 3.1% 1.6% 1.6% 1.4% 0.3% 0.0%
x264 [info]: ref B L0: 66.1% 13.8% 7.6% 3.9% 3.0% 2.5% 1.9% 0.8% 0.3%
x264 [info]: ref B L1: 90.6% 9.4%
x264 [info]: kb/s:2920.12
Общее
Уникальный идентификатор : 218874682860739368054819207674349347154 (0xA4A9BB0739480EE5971F33C512F5E152)
Полное имя : D:ЗагрузкиMissing.Link.2019.x264.BDRip.(720p).OlLanDGroup.mkv
Формат : Matroska
Версия формата : Version 4 / Version 2
Размер файла : 3,05 Гбайт
Продолжительность : 1 ч. 34 м.
Общий поток : 4624 Кбит/сек
Название фильма : Потерянное звено.2019.Rip by: ollan
Дата кодирования : UTC 2019-07-21 17:11:55
Программа кодирования : mkvmerge v6.5.0 ('Isn't she lovely') built on Oct 20 2013 12:50:05
Библиотека кодирования : libebml v1.3.0 + libmatroska v1.4.1
Обложка : Yes
Attachments : Cover - Missing.Link..png

Видео
Идентификатор : 1
Формат : AVC
Формат/Информация : Advanced Video Codec
Профиль формата : High@L4.1
Настройки формата : CABAC / 10 Ref Frames
Параметр CABAC формата : Да
Параметр ReFrames формата : 10 кадров
Идентификатор кодека : V_MPEG4/ISO/AVC
Продолжительность : 1 ч. 34 м.
Битрейт : 2920 Кбит/сек
Ширина : 1280 пикселей
Высота : 534 пикселя
Соотношение сторон : 2,40:1
Режим частоты кадров : Постоянный
Частота кадров : 23,976 (24000/1001) кадра/сек
Цветовое пространство : YUV
Субдискретизация насыщенности : 4:2:0
Битовая глубина : 8 бит
Тип развёртки : Прогрессивная
Бит/(Пиксели*Кадры) : 0.178
Размер потока : 1,87 Гбайт (61%)
Библиотека кодирования : x264 core 146 r2538 121396c
Настройки программы : cabac=1 / ref=10 / deblock=1:-3:-3 / analyse=0x3:0x133 / me=umh / subme=11 / psy=1 / psy_rd=0.95:0.05 / mixed_ref=1 / me_range=64 / chroma_me=1 / trellis=2 / 8x8dct=1 / cqm=0 / deadzone=21,11 / fast_pskip=0 / chroma_qp_offset=-3 / threads=12 / lookahead_threads=3 / sliced_threads=0 / nr=0 / decimate=0 / interlaced=0 / bluray_compat=0 / constrained_intra=0 / bframes=10 / b_pyramid=2 / b_adapt=2 / b_bias=0 / direct=3 / weightb=1 / open_gop=0 / weightp=2 / keyint=240 / keyint_min=23 / scenecut=40 / intra_refresh=0 / rc_lookahead=40 / rc=2pass / mbtree=0 / bitrate=2920 / ratetol=1.0 / qcomp=0.60 / qpmin=0 / qpmax=69 / qpstep=4 / cplxblur=20.0 / qblur=0.5 / vbv_maxrate=50000 / vbv_bufsize=62500 / nal_hrd=none / filler=0 / ip_ratio=1.40 / pb_ratio=1.30 / aq=1:1.00
Язык : English
Default : Да
Forced : Нет

Аудио #1
Идентификатор : 2
Формат : AC-3
Формат/Информация : Audio Coding 3
Идентификатор кодека : A_AC3
Продолжительность : 1 ч. 34 м.
Вид битрейта : Постоянный
Битрейт : 192 Кбит/сек
Каналы : 2 канала
Расположение каналов : Front: L R
Частота : 48,0 КГц
Частота кадров : 31,250 кадров/сек (1536 SPF)
Битовая глубина : 16 бит
Метод сжатия : С потерями
Размер потока : 130 Мбайт (4%)
Заголовок : MVO [HDRezka Studio]
Язык : Russian
Service kind : Complete Main
Default : Да
Forced : Нет

Аудио #2
Идентификатор : 3
Формат : DTS
Формат/Информация : Digital Theater Systems
Идентификатор кодека : A_DTS
Продолжительность : 1 ч. 34 м.
Вид битрейта : Постоянный
Битрейт : 1509 Кбит/сек
Каналы : 6 каналов
Расположение каналов : Front: L C R, Side: L R, LFE
Частота : 48,0 КГц
Частота кадров : 93,750 кадра/сек (512 SPF)
Битовая глубина : 24 бит
Метод сжатия : С потерями
Размер потока : 1019 Мбайт (33%)
Язык : English
Default : Нет
Forced : Нет

Текст #1
Идентификатор : 4
Формат : UTF-8
Идентификатор кодека : S_TEXT/UTF8
Идентификатор кодека/Информация : UTF-8 Plain Text
Заголовок : Forced
Язык : English
Default : Нет
Forced : Нет

Текст #2
Идентификатор : 5
Формат : UTF-8
Идентификатор кодека : S_TEXT/UTF8
Идентификатор кодека/Информация : UTF-8 Plain Text
Заголовок : Full
Язык : English
Default : Нет
Forced : Нет

Меню
00:00:00.000 : en:Chapter 01
00:05:12.520 : en:Chapter 02
00:08:53.616 : en:Chapter 03
00:12:29.206 : en:Chapter 04
00:15:35.851 : en:Chapter 05
00:20:18.550 : en:Chapter 06
00:24:26.840 : en:Chapter 07
00:29:55.126 : en:Chapter 08
00:33:14.659 : en:Chapter 09
00:36:40.948 : en:Chapter 10
00:40:33.389 : en:Chapter 11
00:43:45.164 : en:Chapter 12
00:47:24.299 : en:Chapter 13
00:52:50.876 : en:Chapter 14
00:55:14.477 : en:Chapter 15
00:58:51.903 : en:Chapter 16
00:59:59.721 : en:Chapter 17
01:02:54.729 : en:Chapter 18
01:05:15.494 : en:Chapter 19
01:08:17.176 : en:Chapter 20
01:11:00.339 : en:Chapter 21
01:13:20.437 : en:Chapter 22
01:21:51.197 : en:Chapter 23
01:24:48.625 : en:Chapter 24
Релиз от: Rip by:
Источник http://BlaTor.org

Трекер:  [ 21-Июл-2019 20:30 ]

  

Скачать .torrent

Размер .torrent файла 16 KB


Размер: 3.05 GB
Хэш (hash) релиза: 537f7bcecea4cedf58726e157263a0b7c0247d60
Подписка на обновления:

Еще никто не оставлял запись к записи скачать торрент Потерянное звено Missing Link . Будь первым!

!Обратная связь