Скачать через торрент Вольтрон: Легендарный защитник Voltron: Legendary Defender Фильм бесплатно в хорошем качестве torrent

Скачивайте на UnionPeer.org фильмы через торрент без регистрации. Новинки кино в хорошем качестве через торрент. На UnionPeer.org можно скачать через торрент фильмы 2014 и 2015 годов. Самые новые фильмы.

Скачать торрент Вольтрон: Легендарный защитник Voltron: Legendary Defender бесплатно через .torrent фильм мультфильм сериал

Статистика раздачи
Размер:  4.88 GB   |    Зарегистрирован:  2 месяца 18 дней   |    .torrent скачан:  17 раз   |   
Раздают:  2  
   
загрузка...
 
Автор Сообщение

Galfimbul

avatar Galfimbul


Вольтрон: Легендарный защитник. Сезон 4 /Voltron: Legendary Defender. Season 4

Год выхода: 2017
Жанр: мультфильм
, фантастика, боевик, комедия, приключения, семейный
Режиссер: Юджин Ли, Стив Ан, Крис Палмер
Роли озвучивали: Джереми Шэда (Lance), Бекс Тейлор-Клаус (Pidge), Тайлер Лабин (Hunk), Сонни Дей (Allura), Джошуа Китон (Shiro), Риз Дэрби (Coran), Стивен Ян (Keith), А.Дж. Локасцио (Lotor), Кри Саммер (Witch Haggar), Боб Бобсон (Emperor Zarkon), Нолан Норт (Samuel Holt), Кимико Гленн (Ezor)

О фильме:
Пять земных подростков - Кит, Лэнс, Ханк, Пидж и Широ - волею судьбы стали пилотами величайшего оружия во вселенной, Вольтрона. Теперь они последняя надежда галактики в битве против империи Галра и её правителя Заркона.

Страна: США
Студия: DreamWorks Animation
Продолжительность: ~00:24:00 х 6 серий
Перевод: Любительский (многоголосый, закадровый) AniDUB;
Русские субтитры: Notabenoid.


Рекламы нет

Файл
Качество: WEBRip 1080 (NTb)
Кодек: H264
Видео: 1920x1080 (16:9), 23.976 fps, MPEG-4 AVC ~5193 kbps
Аудио: AC3 2.0, 48.0 kHz, 192 kbps | Любительский (многоголосый, закадровый) AniDUB 01-06
Аудио: AC3 5.1, 48.0 kHz, 384 kbps | English 01-06
Субтитры: SRT | Notabenoid (Отдельно)
Субтитры: SRT | English (Вшитые)

Сэмпл
1. Кодекс чести
2. Встреча после разлуки
3. Секреты
4. Шоу Вольтрона!
5. Начать наступление
6. Новый защитник
General
Unique ID : 244116300680165689908753343183667841911 (0xB7A716DEF0AE8AB3A21F81A040CBCB77)
Complete name : E:[NewSeriesHD] Voltron Legendary Defender S04 (2017) WEBRip 1080p NF[NewSeriesHD] Voltron Legendary Defender s04e01 Code of Honor [WEBRip 1080p NF by NTb].mkv
Format : Matroska
Format version : Version 4 / Version 2
File size : 800 MiB
Duration : 23 min 40 s
Overall bit rate mode : Variable
Overall bit rate : 4 725 kb/s
Movie name : Voltron: Legendary Defender 4x01 - Release NewSeriesHD
Encoded date : UTC 2019-07-25 18:13:11
Writing application : mkvmerge v8.0.0 ('Til The Day That I Die') 32bit
Writing library : libebml v1.3.1 + libmatroska v1.4.2

Video
ID : 1
Format : AVC
Format/Info : Advanced Video Codec
Format profile : Main@L4
Format settings : CABAC / 3 Ref Frames
Format settings, CABAC : Yes
Format settings, ReFrames : 3 frames
Codec ID : V_MPEG4/ISO/AVC
Duration : 23 min 39 s
Bit rate mode : Variable
Bit rate : 4 220 kb/s
Maximum bit rate : 6 330 kb/s
Width : 1 920 pixels
Height : 1 080 pixels
Display aspect ratio : 16:9
Frame rate mode : Constant
Frame rate : 23.976 (24000/1001) FPS
Color space : YUV
Chroma subsampling : 4:2:0
Bit depth : 8 bits
Scan type : Progressive
Bits/(Pixel*Frame) : 0.085
Stream size : 702 MiB (88%)
Writing library : x264 core 118
Encoding settings : cabac=1 / ref=3 / deblock=1:0:0 / analyse=0x1:0x111 / me=umh / subme=10 / psy=1 / psy_rd=1.00:0.00 / mixed_ref=1 / me_range=24 / chroma_me=1 / trellis=2 / 8x8dct=0 / cqm=0 / deadzone=21,11 / fast_pskip=1 / chroma_qp_offset=-2 / threads=8 / sliced_threads=0 / nr=0 / decimate=1 / interlaced=0 / bluray_compat=0 / constrained_intra=0 / bframes=2 / b_pyramid=0 / b_adapt=2 / b_bias=0 / direct=3 / weightb=1 / open_gop=0 / weightp=2 / keyint=48 / keyint_min=25 / scenecut=0 / intra_refresh=0 / rc_lookahead=0 / rc=2pass / mbtree=1 / bitrate=4220 / ratetol=1.0 / qcomp=0.50 / qpmin=6 / qpmax=51 / qpstep=4 / cplxblur=20.0 / qblur=0.5 / vbv_maxrate=6330 / vbv_bufsize=8440 / nal_hrd=vbr / ip_ratio=1.40 / aq=1:1.00
Default : Yes
Forced : No

Audio #1
ID : 2
Format : AC-3
Format/Info : Audio Coding 3
Commercial name : Dolby Digital
Codec ID : A_AC3
Duration : 23 min 40 s
Bit rate mode : Constant
Bit rate : 192 kb/s
Channel(s) : 2 channels
Channel positions : Front: L R
Sampling rate : 48.0 kHz
Frame rate : 31.250 FPS (1536 SPF)
Bit depth : 16 bits
Compression mode : Lossy
Stream size : 32.5 MiB (4%)
Title : MVO, AniDUB
Language : Russian
Service kind : Complete Main
Default : Yes
Forced : No

Audio #2
ID : 3
Format : AC-3
Format/Info : Audio Coding 3
Commercial name : Dolby Digital
Codec ID : A_AC3
Duration : 23 min 40 s
Bit rate mode : Constant
Bit rate : 384 kb/s
Channel(s) : 6 channels
Channel positions : Front: L C R, Side: L R, LFE
Sampling rate : 48.0 kHz
Frame rate : 31.250 FPS (1536 SPF)
Bit depth : 16 bits
Compression mode : Lossy
Stream size : 65.0 MiB (8%)
Title : Original
Language : English
Service kind : Complete Main
Default : No
Forced : No

Text
ID : 4
Format : UTF-8
Codec ID : S_TEXT/UTF8
Codec ID/Info : UTF-8 Plain Text
Duration : 21 min 33 s
Bit rate : 75 b/s
Count of elements : 292
Stream size : 12.0 KiB (0%)
Title : English
Language : English
Default : No
Forced : No
Релиз от NewSeriesHD. Вступайте в нашу группу ВК
Источник http://BlaTor.org

Трекер:  [ 26-Июл-2019 06:30 ]

  

Скачать .torrent

Размер .torrent файла 26 KB


Размер: 4.88 GB
Хэш (hash) релиза: 6e4b00081d9950e9924afbd0781f36aa01bcaaf8
Подписка на обновления:

Торренты, похожие на Вольтрон: Легендарный защитник Voltron: Legendary Defender скачать торрент

Форум Название Автор Размер S L Добавлен
Мультфильмы 2016-2018 (Новинки мультфильмов) ·%· Вольтрон: Легендарный защитник / Voltron: Legendary Defender [S02] (2017) WEBRip 1080p от NewSeriesHD | L Galfimbul 1215894133011.32 GB 0 0 1564111917

06:31

26-Июл-19

Мультфильмы 2016-2018 (Новинки мультфильмов) ·%· Вольтрон: Легендарный защитник / Voltron: Legendary Defender [S03] (2017) WEBRip 1080p от NewSeriesHD | L Galfimbul 63700720695.93 GB 0 0 1564111904

06:31

26-Июл-19

Мультфильмы 2016-2018 (Новинки мультфильмов) ·%· Вольтрон: Легендарный защитник / Voltron: Legendary Defender [S01] (2016) WEBRip 720p от NewSeriesHD | P, L Galfimbul 99457839339.26 GB 0 0 1560771638

14:40

17-Июн-19

Мультфильмы 2016-2018 (Новинки мультфильмов) ·%· Вольтрон: Легендарный защитник / Voltron: Legendary Defender [S01] (2016) WEBRip 1080p от NewSeriesHD | P, L Galfimbul 1482735326413.81 GB 0 0 1560771624

14:40

17-Июн-19

Мультфильмы 2016-2018 (Новинки мультфильмов) ·%· Вольтрон: Легендарный защитник / Voltron: Legendary Defender [01x01-08 из 11] (2016) WEB-DL 1080p | KANSAI Galfimbul 90623903268.44 GB 0 0 1549632673

16:31

8-Фев-19

Мультфильмы 2016-2018 (Новинки мультфильмов) ·%· Вольтрон: Легендарный защитник / Voltron: Legendary Defender [S07] (2018) WEBRip | ColdFilm Galfimbul 35383811103.3 GB 0 0 1536156167

17:02

5-Сен-18

Мультфильмы 2016-2018 (Новинки мультфильмов) ·%· Вольтрон: Легендарный защитник / Voltron: Legendary Defender [S07] (2018) WEBRip 720p | ColdFilm Galfimbul 93920719708.75 GB 0 0 1536156154

17:02

5-Сен-18

Мультфильмы 2016-2018 (Новинки мультфильмов) ·%· Вольтрон: Легендарный защитник / Voltron: Legendary Defender [S07] (2018) WEBRip 1080p | ColdFilm Galfimbul 1165676380510.86 GB 0 0 1536156139

17:02

5-Сен-18

Мультсериалы ·· Вольтрон: Легендарный защитник / Voltron: Legendary Defender / Сезон: 1-2 / Серии: 1-12 из 25 (Хоаким Дос Сантос / Joaquim Dos Santos) [2016-2017, США, мультфильм, фантастика, приключения, WEBRip 1080p] Rus Sub Galfimbul 1320430839012.3 GB 0 0 1485216116

03:01

24-Янв-17

Мультсериалы ·· Вольтрон: Легендарный защитник / Voltron: Legendary Defender / Сезон: 1 / Серии: 01-11 из 11 (Хоаким Дос Сантос / Joaquim Dos Santos) [2016, США, мультфильм, фантастика, приключения, WEBRip] AVO + Rus Sub Galfimbul 36270846733.38 GB 0 0 1469385801

21:43

24-Июл-16

Мультсериалы ·· Вольтрон: Легендарный защитник / Voltron: Legendary Defender / Сезон: 1 / Серии: 1-11 из 11 (Хоаким Дос Сантос / Joaquim Dos Santos) [2016, США, мультфильм, фантастика, приключения, WEBRip 1080p] Rus Sub Galfimbul 1229592812411.45 GB 0 0 1467723826

16:03

5-Июл-16

Мультсериалы ·· Вольтрон: Легендарный защитник / Voltron: Legendary Defender / Сезон: 1 / Серии: 8 из 11 (Хоаким Дос Сантос / Joaquim Dos Santos) [2016, США, мультфильм, фантастика, приключения, WEBRip 1080p] Rus Sub Galfimbul 94719909188.82 GB 0 0 1467112010

14:06

28-Июн-16

Мультсериалы ·· Вольтрон: Легендарный защитник / Voltron: Legendary Defender / Сезон: 1 / Серии: 5 из 11 (Хоаким Дос Сантос / Joaquim Dos Santos) [2016, США, мультфильм, фантастика, приключения, WEBRip 1080p] Rus Sub Galfimbul 65231044226.08 GB 0 0 1466578945

10:02

22-Июн-16

Мультсериалы ·· Вольтрон: Легендарный защитник / Voltron: Legendary Defender / Сезон: 1 / Серии: 3 из 11 (Хоаким Дос Сантос / Joaquim Dos Santos) [2016, США, мультфильм, фантастика, приключения, WEBRip 1080p] Rus Sub Galfimbul 47827197034.45 GB 0 0 1466251809

15:10

18-Июн-16

Мультсериалы ·· Вольтрон: Легендарный защитник / Voltron: Legendary Defender / Сезон: 1 / Серии: 1 из 11 (Бенжамин Калтенекер / Benjamin Kaltenecker) [2016, США, мультфильм, фантастика, приключения, WEBRip 1080p] Rus Sub Galfimbul 27788630572.59 GB 0 0 1466016011

21:40

15-Июн-16

Еще никто не оставлял запись к записи скачать торрент Вольтрон: Легендарный защитник Voltron: Legendary Defender . Будь первым!

!Обратная связь