Скачать через торрент Я не такой! Я не такая! Фильм бесплатно в хорошем качестве torrent

Скачивайте на UnionPeer.org фильмы через торрент без регистрации. Новинки кино в хорошем качестве через торрент. На UnionPeer.org можно скачать через торрент фильмы 2014 и 2015 годов. Самые новые фильмы.

Скачать торрент Я не такой! Я не такая! бесплатно через .torrent фильм мультфильм сериал

Статистика раздачи
Размер:  745 MB   |    Зарегистрирован:  23 дня   |    .torrent скачан:  136 раз   |   
Раздают:  1  
   
загрузка...
 
Автор Сообщение

Galfimbul

avatar Galfimbul


Название: Я не такой! Я не такая!
Год выпуска: 2019
Жанр: Комедия, драма
Режиссёр: Руслан Паушу
В ролях: Анна Чурина, Филипп Рейнхардт, Кристина Бабушкина, Рената Пиотровски, Анатолий Руденко, Иван Кокорин, Наталия Лесниковская, Тимур Боканча, Елена Драпеко, Ольга Ефремова, Надежда Игошина, Валентина Мазунина, Владислав Топалов

О фильме:
Три подруги находят в телефонах своих кавалеров один и тот же номер, который подписан именем – Марго. Вскоре им удается выяснить, что это номер девушки с низкой социальной ответственностью. Жизнь каждой из них переворачивается с ног на голову. Эрик собирался сделать предложение Вере, но теперь она не знает, что ему ответить. Люба от злости чуть не застрелила Илью. А Надя, у которой на следующий день должна была состояться свадьба, отказывается выходить замуж. Немного остыв и подумав, девушки решают вызвать Марго, чтобы понять, что в ней такого особенного.


Страна: Россия
Студия: Корпорация Русская Фильм Группа
Продолжительность: 01:23:40
Язык: Русский | iTunes

Файл
Формат: MKV
Качество: WEB-DLRip-AVC
Видео: MPEG-4 AVC, 800x336, - 1168 Кбит/с
Аудио: AAC-HE, 2 ch, - 76 Кбит/с
Субтитры: Нет
Общее
Уникальный идентификатор : 334574274109317021038628066083445180430 (0xFBB4A94BCCF570F593D25EE03830880E)
Полное имя : D:MOVIESYA.ne.takoj!YA.ne.takaya!2019.ExKinoRay.mkv
Формат : Matroska
Версия формата : Version 4 / Version 2
Размер файла : 745 Мбайт
Продолжительность : 1 ч. 23 м.
Общий поток : 1245 Кбит/сек
Дата кодирования : UTC 2019-07-26 12:33:12
Программа кодирования : mkvmerge v35.0.0 ('All The Love In The World') 64-bit
Библиотека кодирования : libebml v1.3.9 + libmatroska v1.5.2

Видео
Идентификатор : 1
Формат : AVC
Формат/Информация : Advanced Video Codec
Профиль формата : High@L4.1
Параметр CABAC формата : Да
Параметр RefFrames формата : 12 кадров
Идентификатор кодека : V_MPEG4/ISO/AVC
Продолжительность : 1 ч. 23 м.
Битрейт : 1168 Кбит/сек
Ширина : 800 пикселей
Высота : 336 пикселей
Соотношение сторон : 2,40:1
Режим частоты кадров : Постоянный
Частота кадров : 24,000 кадра/сек
Цветовое пространство : YUV
Субдискретизация насыщенности : 4:2:0
Битовая глубина : 8 бит
Тип развёртки : Прогрессивная
Бит/(Пиксели*Кадры) : 0.181
Размер потока : 698 Мбайт (94%)
Библиотека кодирования : x264 core 152 r2851kMod ba24899
Настройки программы : cabac=1 / ref=12 / deblock=1:-3:-3 / analyse=0x3:0x133 / me=umh / subme=10 / psy=1 / fade_compensate=0.00 / psy_rd=1.00:0.11 / mixed_ref=1 / me_range=32 / chroma_me=1 / trellis=2 / 8x8dct=1 / cqm=0 / deadzone=21,11 / fast_pskip=0 / chroma_qp_offset=-3 / threads=6 / lookahead_threads=1 / sliced_threads=0 / nr=0 / decimate=0 / interlaced=0 / bluray_compat=0 / constrained_intra=0 / bframes=12 / b_pyramid=2 / b_adapt=2 / b_bias=0 / direct=3 / weightb=1 / open_gop=0 / weightp=2 / keyint=240 / keyint_min=24 / scenecut=40 / intra_refresh=0 / rc_lookahead=40 / rc=2pass / mbtree=1 / bitrate=1168 / ratetol=1.0 / qcomp=0.60 / qpmin=0 / qpmax=69 / qpstep=4 / cplxblur=20.0 / qblur=0.5 / ip_ratio=1.40 / aq=3:1.00
Default : Да
Forced : Нет

Аудио
Идентификатор : 2
Формат : AAC
Формат/Информация : Advanced Audio Codec
Профиль формата : HE-AAC / LC
Идентификатор кодека : A_AAC
Продолжительность : 1 ч. 23 м.
Битрейт : 76,0 Кбит/сек
Каналы : 2 канала
Расположение каналов : Front: L R
Частота : 48,0 КГц / 24,0 КГц
Частота кадров : 23,438 кадра/сек (1024 SPF)
Метод сжатия : С потерями
Задержка видео : 31 мс.
Размер потока : 45,5 Мбайт (6%)
Язык : Russian
Default : Да
Forced : Нет

Меню
00:00:00.000 : en:Глава 1
00:06:13.041 : en:Глава 2
00:13:57.999 : en:Глава 3
00:20:23.374 : en:Глава 4
00:25:42.707 : en:Глава 5
00:32:12.707 : en:Глава 6
00:38:28.582 : en:Глава 7
00:45:37.082 : en:Глава 8
00:51:32.832 : en:Глава 9
00:58:03.748 : en:Глава 10
01:04:43.623 : en:Глава 11
01:12:47.706 : en:Глава 12
Источник http://BlaTor.org

Трекер:  [ 26-Июл-2019 15:50 ]

  

Скачать .torrent

Размер .torrent файла 15 KB


Размер: 745 MB
Хэш (hash) релиза: ff262b1a1f3932397cf99d8d977d0ba016b3f5b7
Подписка на обновления:

Еще никто не оставлял запись к записи скачать торрент Я не такой! Я не такая! . Будь первым!

!Обратная связь