Скачать через торрент Та еще парочка Long Shot Фильм бесплатно в хорошем качестве torrent

Скачивайте на UnionPeer.org фильмы через торрент без регистрации. Новинки кино в хорошем качестве через торрент. На UnionPeer.org можно скачать через торрент фильмы 2014 и 2015 годов. Самые новые фильмы.

Скачать торрент Та еще парочка Long Shot бесплатно через .torrent фильм мультфильм сериал

Статистика раздачи
Размер:  7.53 GB   |    Зарегистрирован:  4 месяца 17 дней   |    .torrent скачан:  314 раз   |   
Раздают:  1  
 

Скачать Та еще парочка / Long Shot (2019) BDRip 1080p от HDReactor | D через torrent

 
загрузка...
 
Автор Сообщение

Galfimbul

avatar Galfimbul


информация о фильме
Та еще парочка / Long Shot

Год выпуска: 2019
Жанр: Мелодрама, комедия
Выпущено: США, AG Studios, Denver and Delilah Productions, Good Universe
Режиссер: Джонатан Левин
В ролях: Шарлиз Терон, Сет Роген, Джун Рафаэль, О`Ши Джексон мл., Рави Патель, Боб Оденкёрк, Энди Серкис, Рэндолл Парк, Тристан Д. Лалла, Александр Скарсгард

О фильме: Шарлотта Филд - одна из самых влиятельных бизнесвумен планеты. Целеустремленная, умная, обворожительная, она хороша в любом деле, за которое берется. Фред Фларски - талантливый, но эксцентричный и склонный к саморазрушению журналист. У них нет ничего общего кроме того, что она - его первая любовь. И вот спустя годы они случайно встречаются вновь. Фред очаровывает Шарлотту, и она неожиданно для всех (и для самой себя) нанимает его в качестве спичрайтера для своей предвыборной кампании... Их воссоединение запускает цепочку головокружительно нелепых и опасных событий мирового масштаба.

Продолжительность: 02:04:56
Перевод: Дублированный
Субтитры: Русские (форс), английские

Файл
Качество: BDRip (1080p)
Видео: MPEG-4 AVC, 7870 Кбит/с, 1920х804
Аудио #1: Русский(AC3, 6 ch, 384 Кбит/с)
Аудио #1: Английский (AC3, 6 ch, 384 Кбит/с)
Полное имя : Z:Long.Shot.2019.1080p.BluRay.REMUX.AVC.DTS-HD.MA.TrueHD.7.1.Atmos-FGTLong.Shot.2019.BDRip1080p.HDReactor.mkv
Формат : Matroska
Версия формата : Version 2
Размер файла : 7,53 Гбайт
Продолжительность : 2 ч. 4 м.
Общий поток : 8628 Кбит/сек
Дата кодирования : UTC 2019-07-27 02:25:52
Программа кодирования : mkvmerge v6.5.0 ('Isn't she lovely') built on Oct 20 2013 12:50:05
Библиотека кодирования : libebml v1.3.0 + libmatroska v1.4.1
Обложка : Yes
Attachments : cover.jpg

Видео
Идентификатор : 1
Формат : AVC
Формат/Информация : Advanced Video Codec
Профиль формата : High@L4.1
Настройки формата : CABAC / 5 Ref Frames
Параметр CABAC формата : Да
Параметр RefFrames формата : 5 кадров
Идентификатор кодека : V_MPEG4/ISO/AVC
Продолжительность : 2 ч. 4 м.
Битрейт : 7870 Кбит/сек
Ширина : 1920 пикселей
Высота : 804 пикселя
Соотношение сторон : 2,40:1
Режим частоты кадров : Постоянный
Частота кадров : 23,976 (24000/1001) кадра/сек
Цветовое пространство : YUV
Субдискретизация насыщенности : 4:2:0
Битовая глубина : 8 бит
Тип развёртки : Прогрессивная
Бит/(Пиксели*Кадры) : 0.213
Размер потока : 6,71 Гбайт (89%)
Заголовок : ~V~
Библиотека кодирования : x264 core 157 r2945 72db437
Настройки программы : cabac=1 / ref=5 / deblock=1:-3:-3 / analyse=0x3:0x133 / me=umh / subme=11 / psy=1 / psy_rd=1.00:0.00 / mixed_ref=1 / me_range=40 / chroma_me=1 / trellis=2 / 8x8dct=1 / cqm=0 / deadzone=21,11 / fast_pskip=0 / chroma_qp_offset=-2 / threads=12 / lookahead_threads=1 / sliced_threads=0 / nr=0 / decimate=0 / interlaced=0 / bluray_compat=0 / constrained_intra=0 / bframes=9 / b_pyramid=2 / b_adapt=2 / b_bias=0 / direct=3 / weightb=1 / open_gop=0 / weightp=2 / keyint=240 / keyint_min=23 / scenecut=40 / intra_refresh=0 / rc=2pass / mbtree=0 / bitrate=7870 / ratetol=1.0 / qcomp=0.80 / qpmin=0 / qpmax=69 / qpstep=4 / cplxblur=20.0 / qblur=0.5 / ip_ratio=1.24 / pb_ratio=1.28 / aq=3:0.70
Язык : Английский
Default : Да
Forced : Нет

Аудио #1
Идентификатор : 2
Формат : AC-3
Формат/Информация : Audio Coding 3
Коммерческое название : Dolby Digital
Идентификатор кодека : A_AC3
Продолжительность : 2 ч. 4 м.
Вид битрейта : Постоянный
Битрейт : 384 Кбит/сек
Каналы : 6 каналов
Channel layout : L R C LFE Ls Rs
Частота : 48,0 КГц
Частота кадров : 31,250 кадров/сек (1536 SPF)
Битовая глубина : 16 бит
Метод сжатия : С потерями
Размер потока : 343 Мбайт (4%)
Заголовок : Dub
Язык : Русский
Service Kind : Complete Main
Default : Да
Forced : Нет

Аудио #2
Идентификатор : 3
Формат : AC-3
Формат/Информация : Audio Coding 3
Коммерческое название : Dolby Digital
Идентификатор кодека : A_AC3
Продолжительность : 2 ч. 4 м.
Вид битрейта : Постоянный
Битрейт : 384 Кбит/сек
Каналы : 6 каналов
Channel layout : L R C LFE Ls Rs
Частота : 48,0 КГц
Частота кадров : 31,250 кадров/сек (1536 SPF)
Битовая глубина : 16 бит
Метод сжатия : С потерями
Размер потока : 343 Мбайт (4%)
Язык : Английский
Service Kind : Complete Main
Default : Нет
Forced : Нет

Текст #1
Идентификатор : 4
Формат : UTF-8
Идентификатор кодека : S_TEXT/UTF8
Идентификатор кодека/Информация : UTF-8 Plain Text
Заголовок : Forced
Язык : Русский
Default : Да
Forced : Нет

Текст #2
Идентификатор : 5
Формат : UTF-8
Идентификатор кодека : S_TEXT/UTF8
Идентификатор кодека/Информация : UTF-8 Plain Text
Язык : Английский
Default : Нет
Forced : Нет

Меню
00:00:00.000 : en:Chapter 01
00:05:03.553 : en:Chapter 02
00:16:45.170 : en:Chapter 03
00:27:26.561 : en:Chapter 04
00:31:23.047 : en:Chapter 05
00:40:15.913 : en:Chapter 06
00:45:13.043 : en:Chapter 07
00:54:02.489 : en:Chapter 08
01:02:53.811 : en:Chapter 09
01:12:46.153 : en:Chapter 10
01:17:51.833 : en:Chapter 11
01:26:25.805 : en:Chapter 12
01:33:33.441 : en:Chapter 13
01:40:49.418 : en:Chapter 14
01:50:57.776 : en:Chapter 15
01:54:25.942 : en:Chapter 16
Сэмпл
Релиз от:
Источник http://BlaTor.org

Трекер:  [ 27-Июл-2019 06:30 ]

  

Скачать .torrent

Размер .torrent файла 19 KB


Размер: 7.53 GB
Хэш (hash) релиза: 4a01a0e08c4675e3ea7ff488ade7856fa5973701
Подписка на обновления:

Торренты, похожие на Та еще парочка Long Shot скачать торрент

Форум Название Автор Размер S L Добавлен
Зарубежные фильмы 2016-2018 (Новинки зарубежного кино) ·%· Та еще парочка / Long Shot (2019) BDRip-HEVC 1080p | iTunes Galfimbul 58341007155.43 GB 0 0 1564846213

18:30

3-Авг-19

Зарубежные фильмы 2016-2018 (Новинки зарубежного кино) ·%· Та еще парочка / Long Shot (2019) BDRip-AVC от OlLanDGroup | iTunes Galfimbul 15626637881.46 GB 0 0 1564456263

06:11

30-Июл-19

Зарубежные фильмы 2016-2018 (Новинки зарубежного кино) ·%· Та еще парочка / Long Shot (2019) BDRip от Twister & ExKinoRay | iTunes Galfimbul 22837528642.13 GB 0 0 1564419620

20:00

29-Июл-19

Зарубежные фильмы 2016-2018 (Новинки зарубежного кино) ·%· Та еще парочка / Long Shot (2019) BDRip 720p от Scarabey | iTunes Galfimbul 53292280484.96 GB 0 0 1564336859

21:00

28-Июл-19

Зарубежные фильмы 2016-2018 (Новинки зарубежного кино) ·%· Та еще парочка / Long Shot (2019) HDRip от Scarabey | iTunes Galfimbul 785938432750 MB 0 0 1564335633

20:40

28-Июл-19

Зарубежные фильмы 2016-2018 (Новинки зарубежного кино) ·%· Та еще парочка / Long Shot (2019) HDRip от Generalfilm | КПК | iTunes Galfimbul 494691003472 MB 0 0 1564291949

08:32

28-Июл-19

Зарубежные фильмы 2016-2018 (Новинки зарубежного кино) ·%· Та еще парочка / Long Shot (2019) BDRip-AVC от HELLYWOOD | iTunes Galfimbul 46308780034.31 GB 0 0 1564247459

20:10

27-Июл-19

Зарубежные фильмы 2016-2018 (Новинки зарубежного кино) ·%· Та еще парочка / Long Shot (2019) HDRip от Portablius | iTunes Galfimbul 784363520748 MB 0 0 1564221035

12:50

27-Июл-19

Зарубежные фильмы 2016-2018 (Новинки зарубежного кино) ·%· Та еще парочка / Long Shot (2019) BDRip-AVC от OlLanDGroup | iTunes Galfimbul 20457450281.91 GB 0 0 1564194652

05:30

27-Июл-19

Зарубежные фильмы 2016-2018 (Новинки зарубежного кино) ·%· Та еще парочка / Long Shot (2019) BDRip-AVC от ExKinoRay | iTunes Galfimbul 26646556912.48 GB 0 0 1564183213

02:20

27-Июл-19

Зарубежные фильмы 2016-2018 (Новинки зарубежного кино) ·%· Та еще парочка / Long Shot (2019) BDRip | iTunes Galfimbul 15630888461.46 GB 2 0 1564169580

22:33

26-Июл-19

Зарубежные фильмы 2016-2018 (Новинки зарубежного кино) ·%· Та еще парочка / Long Shot (2019) BDRip от MegaPeer | iTunes Galfimbul 15679365121.46 GB 0 0 1564169473

22:31

26-Июл-19

Зарубежные фильмы 2016-2018 (Новинки зарубежного кино) ·%· Та еще парочка / Long Shot (2019) BDRemux 1080p от селезень | iTunes Galfimbul 2801382726326.09 GB 0 0 1564168212

22:10

26-Июл-19

Зарубежные фильмы 2016-2018 (Новинки зарубежного кино) ·%· Та еще парочка / Long Shot (2019) BDRip 720p от селезень | iTunes Galfimbul 49935701674.65 GB 0 0 1564167078

21:51

26-Июл-19

Еще никто не оставлял запись к записи скачать торрент Та еще парочка Long Shot . Будь первым!

!Обратная связь