Скачать через торрент Мстители: Финал Avengers: Endgame Фильм бесплатно в хорошем качестве torrent

Скачивайте на UnionPeer.org фильмы через торрент без регистрации. Новинки кино в хорошем качестве через торрент. На UnionPeer.org можно скачать через торрент фильмы 2014 и 2015 годов. Самые новые фильмы.

Скачать торрент Мстители: Финал Avengers: Endgame бесплатно через .torrent фильм мультфильм сериал

Статистика раздачи
Размер:  13.6 GB   |    Зарегистрирован:  2 месяца 13 дней   |    .torrent скачан:  357 раз   |   
Раздают:  3  
   
загрузка...
 
Автор Сообщение

Galfimbul

avatar Galfimbul


Мстители: Финал /Avengers: Endgame

Год выхода: 2019
Жанр: Фантастика, фэнтези, боевик, приключения
Режиссер: Энтони Руссо, Джо Руссо
В ролях: Бри Ларсон, Линда Карделлини, Скарлетт Йоханссон, Карен Гиллан, Тесса Томпсон, Роберт Дауни мл., Крис Хемсворт, Крис Эванс, Эванджелин Лилли, Хейли Этвелл, Марк Руффало, Джереми Реннер, Дон Чидл, Пол Радд

О фильме:
Оставшиеся в живых члены команды Мстителей и их союзники должны разработать новый план, который поможет противостоять разрушительным действиям могущественного титана Таноса. После наиболее масштабной и трагической битвы в истории они не могут допустить ошибку.



Страна: США
Студия: Marvel Studios
Продолжительность: 03:01:11
Перевод: Дублированный | Line, Профессиональный многоголосый | HDRezka Studio

Файл
Кодек: x.264
Качество: BDRip 1080p | Avengers.Endgame.2019.1080p.BluRay.x264-SPARKS
Видео: MPEG-4 AVC, 8857 Kбит/с, 1920x808, 23.976 кадр/с
Звук: ? Без рекламы!
Аудио #1: Русский (АС3, 2ch, 192 Кбит/с, 48.0 KHz) Профессиональный (полное дублирование) Line
Аудио #2: Русский (АС3, 2ch, 192 Кбит/с, 48.0 KHz) Профессиональный (многоголосый, закадровый) HDRezka Studio
Аудио #3: Английский (DTS, 6ch, 1509 Кбит/с, 48.0 KHz)
Субтитры: Русские (форсированные на надписи и японскую речь, полные), английские (full, SDH)
Трейлер
Источник: Avengers.Endgame.2019.1080p.BluRay.x264-SPARKS
General
Unique ID : 228845488441711815726803164068698986847 (0xAC2A09B2AF9BFE93817C85955721195F)
Complete name : Avengers.Endgame.2019.BDRip.1080p.mkv
Format : Matroska
Format version : Version 4
File size : 13.6 GiB
Duration : 3 h 1 min
Overall bit rate : 10.7 Mb/s
Encoded date : UTC 2019-07-31 13:21:38
Writing application : mkvmerge v7.1.0 ('Good Love') 64bit built on Jul 27 2014 13:06:55
Writing library : libebml v1.3.0 + libmatroska v1.4.1

Video
ID : 1
Format : AVC
Format/Info : Advanced Video Codec
Format profile : High@L4.1
Format settings : CABAC / 5 Ref Frames
Format settings, CABAC : Yes
Format settings, Reference fra : 5 frames
Codec ID : V_MPEG4/ISO/AVC
Duration : 3 h 1 min
Bit rate : 8 857 kb/s
Width : 1 920 pixels
Height : 808 pixels
Display aspect ratio : 2.40:1
Frame rate mode : Constant
Frame rate : 23.976 (24000/1001) FPS
Color space : YUV
Chroma subsampling : 4:2:0
Bit depth : 8 bits
Scan type : Progressive
Bits/(Pixel*Frame) : 0.238
Stream size : 11.2 GiB (82%)
Writing library : x264 core 158 r2984 3759fcb
Encoding settings : cabac=1 / ref=5 / deblock=1:-3:-3 / analyse=0x3:0x133 / me=umh / subme=8 / psy=1 / psy_rd=1.00:0.00 / mixed_ref=1 / me_range=16 / chroma_me=1 / trellis=1 / 8x8dct=1 / cqm=0 / deadzone=21,11 / fast_pskip=0 / chroma_qp_offset=-2 / threads=25 / lookahead_threads=4 / sliced_threads=0 / nr=0 / decimate=1 / interlaced=0 / bluray_compat=0 / constrained_intra=0 / bframes=3 / b_pyramid=2 / b_adapt=1 / b_bias=0 / direct=3 / weightb=1 / open_gop=0 / weightp=2 / keyint=250 / keyint_min=23 / scenecut=40 / intra_refresh=0 / rc_lookahead=50 / rc=2pass / mbtree=1 / bitrate=8857 / ratetol=1.0 / qcomp=0.60 / qpmin=0 / qpmax=69 / qpstep=4 / cplxblur=20.0 / qblur=0.5 / vbv_maxrate=62500 / vbv_bufsize=78125 / nal_hrd=none / filler=0 / ip_ratio=1.40 / aq=1:1.00
Language : English
Default : Yes
Forced : No

Audio #1
ID : 2
Format : AC-3
Format/Info : Audio Coding 3
Commercial name : Dolby Digital
Codec ID : A_AC3
Duration : 2 h 58 min
Bit rate mode : Constant
Bit rate : 192 kb/s
Channel(s) : 2 channels
Channel layout : L R
Sampling rate : 48.0 kHz
Frame rate : 31.250 FPS (1536 SPF)
Bit depth : 16 bits
Compression mode : Lossy
Stream size : 245 MiB (2%)
Title : DUB | Line
Language : Russian
Service kind : Complete Main
Default : Yes
Forced : No

Audio #2
ID : 3
Format : AC-3
Format/Info : Audio Coding 3
Commercial name : Dolby Digital
Codec ID : A_AC3
Duration : 3 h 1 min
Bit rate mode : Constant
Bit rate : 192 kb/s
Channel(s) : 2 channels
Channel layout : L R
Sampling rate : 48.0 kHz
Frame rate : 31.250 FPS (1536 SPF)
Bit depth : 16 bits
Compression mode : Lossy
Stream size : 249 MiB (2%)
Title : MVO | HDRezka Studio
Language : Russian
Service kind : Complete Main
Default : No
Forced : No

Audio #3
ID : 4
Format : DTS
Format/Info : Digital Theater Systems
Codec ID : A_DTS
Duration : 3 h 1 min
Bit rate mode : Constant
Bit rate : 1 509 kb/s
Channel(s) : 6 channels
Channel layout : C L R Ls Rs LFE
Sampling rate : 48.0 kHz
Frame rate : 93.750 FPS (512 SPF)
Bit depth : 24 bits
Compression mode : Lossy
Stream size : 1.91 GiB (14%)
Language : English
Default : No
Forced : No

Text #1
ID : 5
Format : UTF-8
Codec ID : S_TEXT/UTF8
Codec ID/Info : UTF-8 Plain Text
Duration : 1 h 57 min
Bit rate : 1 b/s
Count of elements : 34
Stream size : 1.52 KiB (0%)
Title : Forced (Enigma)
Language : Russian
Default : Yes
Forced : No

Text #2
ID : 6
Format : UTF-8
Codec ID : S_TEXT/UTF8
Codec ID/Info : UTF-8 Plain Text
Duration : 2 h 49 min
Bit rate : 80 b/s
Count of elements : 2222
Stream size : 100 KiB (0%)
Title : Full (Ruf)
Language : Russian
Default : No
Forced : No

Text #3
ID : 7
Format : UTF-8
Codec ID : S_TEXT/UTF8
Codec ID/Info : UTF-8 Plain Text
Duration : 2 h 47 min
Bit rate : 50 b/s
Count of elements : 2339
Stream size : 61.6 KiB (0%)
Language : English
Default : No
Forced : No

Text #4
ID : 8
Format : UTF-8
Codec ID : S_TEXT/UTF8
Codec ID/Info : UTF-8 Plain Text
Duration : 3 h 0 min
Bit rate : 52 b/s
Count of elements : 2641
Stream size : 68.9 KiB (0%)
Title : SDH
Language : English
Default : No
Forced : No

Menu
00:00:00.000 : en:00:00:00.000
00:08:05.902 : en:00:08:05.902
00:20:01.700 : en:00:20:01.700
00:26:15.282 : en:00:26:15.282
00:36:57.173 : en:00:36:57.173
00:43:20.598 : en:00:43:20.598
00:48:44.171 : en:00:48:44.171
00:57:36.745 : en:00:57:36.745
01:07:12.612 : en:01:07:12.612
01:16:02.516 : en:01:16:02.516
01:26:25.430 : en:01:26:25.430
01:32:20.118 : en:01:32:20.118
01:38:55.805 : en:01:38:55.805
01:48:12.361 : en:01:48:12.361
01:57:26.915 : en:01:57:26.915
02:05:00.243 : en:02:05:00.243
02:15:06.432 : en:02:15:06.432
02:25:50.450 : en:02:25:50.450
02:34:37.935 : en:02:34:37.935
02:43:03.899 : en:02:43:03.899
02:49:05.344 : en:02:49:05.344
Источник http://BlaTor.org

Трекер:  [ 31-Июл-2019 17:20 ]

  

Скачать .torrent

Размер .torrent файла 34 KB


Размер: 13.6 GB
Хэш (hash) релиза: 717a745faed360f19703ed48becfc135eaca64b5
Подписка на обновления:

Торренты, похожие на Мстители: Финал Avengers: Endgame скачать торрент

Форум Название Автор Размер S L Добавлен
Зарубежные фильмы 2016-2018 (Новинки зарубежного кино) ·%· Мстители: Финал / Avengers: Endgame (2019) BDRip 1080p от Scarabey | iTunes Galfimbul 1954636084818.2 GB 0 0 1570983008

19:10

13-Окт-19

Зарубежные фильмы 2016-2018 (Новинки зарубежного кино) ·%· Мстители: Финал / Avengers: Endgame (2019) BDRip 1080p от Ash61 | 3D-Video | halfOU | iTunes Galfimbul 1857177043817.3 GB 0 0 1566565996

16:13

23-Авг-19

Зарубежные фильмы 2016-2018 (Новинки зарубежного кино) ·%· Мстители: Финал / Avengers: Endgame (2019) BDRip от MegaPeer | iTunes Galfimbul 30396537962.83 GB 0 0 1564903325

10:22

4-Авг-19

Зарубежные фильмы 2016-2018 (Новинки зарубежного кино) ·%· Мстители: Финал / Avengers: Endgame (2019) BDRip-AVC от HELLYWOOD | iTunes Galfimbul 22562544332.1 GB 0 0 1564887756

06:02

4-Авг-19

Зарубежные фильмы 2016-2018 (Новинки зарубежного кино) ·%· Мстители: Финал / Avengers: Endgame (2019) BDRip от Twister & ExKinoRay | iTunes Galfimbul 23456151122.18 GB 2 0 1564872632

01:50

4-Авг-19

Зарубежные фильмы 2016-2018 (Новинки зарубежного кино) ·%· Мстители: Финал / Avengers: Endgame (2019) BDRip от Twister & ExKinoRay | iTunes Galfimbul 15661084661.46 GB 0 0 1564860698

22:31

3-Авг-19

Зарубежные фильмы 2016-2018 (Новинки зарубежного кино) ·%· Мстители: Финал / Avengers: Endgame (2019) HDRip-AVC от New-Team | D Galfimbul 31482616042.93 GB 0 0 1564769413

21:10

2-Авг-19

Зарубежные фильмы 2016-2018 (Новинки зарубежного кино) ·%· Мстители: Финал / Avengers: Endgame (2019) HDRip от GeneralFilm | iTunes Galfimbul 15728906241.46 GB 0 0 1564719019

07:10

2-Авг-19

Зарубежные фильмы 2016-2018 (Новинки зарубежного кино) ·%· Мстители: Финал / Avengers: Endgame (2019) HDRip-AVC от OlLanDGroup | D, P | iTunes Galfimbul 23426900502.18 GB 0 0 1564691458

23:30

1-Авг-19

Зарубежные фильмы 2016-2018 (Новинки зарубежного кино) ·%· Мстители: Финал / Avengers: Endgame (2019) HDRip от MegaPeer | iTunes Galfimbul 15647763561.46 GB 0 0 1564687847

22:30

1-Авг-19

Зарубежные фильмы 2016-2018 (Новинки зарубежного кино) ·%· Мстители: Финал / Avengers: Endgame (2019) HDRip-AVC от OlLanDGroup | D, P | iTunes Galfimbul 38225512863.56 GB 2 0 1564687834

22:30

1-Авг-19

Зарубежные фильмы 2016-2018 (Новинки зарубежного кино) ·%· Мстители: Финал / Avengers: Endgame (2019) BDRip 1080p от селезень | D, P | iTunes Galfimbul 1881391903217.52 GB 0 0 1564686025

22:00

1-Авг-19

Зарубежные фильмы 2016-2018 (Новинки зарубежного кино) ·%· Мстители: Финал / Avengers: Endgame (2019) BDRip 720p от ExKinoRay | P Galfimbul 84236255367.85 GB 0 0 1564623049

04:30

1-Авг-19

Зарубежные фильмы 2016-2018 (Новинки зарубежного кино) ·%· Мстители: Финал / Avengers: Endgame (2019) WEB-DL 1080p от ExKinoRay | P Galfimbul 73013021986.8 GB 2 0 1564525242

01:20

31-Июл-19

Зарубежные фильмы 2016-2018 (Новинки зарубежного кино) ·%· Мстители: Финал / Avengers: Endgame (2019) WEB-DLRip-AVC | D | Line Galfimbul 33648227213.13 GB 0 0 1564516813

23:00

30-Июл-19

Зарубежные фильмы 2016-2018 (Новинки зарубежного кино) ·%· Мстители: Финал / Avengers: Endgame (2019) WEB-DL 1080p | D | Line Galfimbul 69487379476.47 GB 2 0 1564480844

13:00

30-Июл-19

Зарубежные фильмы 2016-2018 (Новинки зарубежного кино) ·%· Мстители: Финал / Avengers: Endgame (2019) TC-AVC | Line Galfimbul 41440878793.86 GB 0 0 1558727420

22:50

24-Май-19

Зарубежные фильмы 2016-2018 (Новинки зарубежного кино) ·%· Мстители: Финал / Avengers: Endgame (2019) TC от Dalemake | Line Galfimbul 23521873922.19 GB 0 0 1558610446

14:20

23-Май-19

Зарубежные фильмы 2016-2018 (Новинки зарубежного кино) ·%· Мстители: Финал / Avengers: Endgame (2019) WEBRip 1080p | Трейлер №2 Galfimbul 662140793631 MB 0 0 1552658415

17:00

15-Мар-19

Еще никто не оставлял запись к записи скачать торрент Мстители: Финал Avengers: Endgame . Будь первым!

!Обратная связь