Скачать через торрент Легенда о воюющих царствах Jue ji Фильм бесплатно в хорошем качестве torrent

Скачивайте на UnionPeer.org фильмы через торрент без регистрации. Новинки кино в хорошем качестве через торрент. На UnionPeer.org можно скачать через торрент фильмы 2014 и 2015 годов. Самые новые фильмы.

Скачать торрент Легенда о воюющих царствах Jue ji бесплатно через .torrent фильм мультфильм сериал

Статистика раздачи
Размер:  2.53 GB   |    Зарегистрирован:  2 месяца 10 дней   |    .torrent скачан:  290 раз   |   
Раздают:  3  
   
загрузка...
 
Автор Сообщение

Galfimbul

avatar Galfimbul


Легенда о воюющих царствах / Jue ji

Год выпуска: 2016
Жанр: мультфильм, приключения, фэнтези
Режиссер: Го Цзинмин
В ролях: Фань Бинбин, Чени Чэнь, Крис У,Уильям Чан, Эмбер Ко, Джелли Линь, Ян Ми, Рой Ван, Кевин Янь, Тони Ван

Деревенский парнишка Чилин работал на подхвате в местной таверне, когда в город пришли столичные маги-алхимики. Маги собирались поймать опасное чудовище — ледяного енота — но слегка ошиблись с животным и заплатили за это жизнью.
Но зато в эту страшную ночь, погубившую множество жизней, у Чилина проснулись магические способности. Он случайно обуздал зверя, после чего был взят в ученики одним из верховных алхимиков Гланорта — Инь Чэнем (Силвером). Теперь деревенский простачок оказался вовлечен в самое пекло политических интриг и бесконечной борьбы магов за власть над континентом. Власть, способную сокрушить всё мироздание.



Страна: Китай, Камбоджа
Студия: Le Vision Pictures
Продолжительность: 01:57:33
Перевод: Дубляж (СВ-Дубль)
Файл
Кодек: H.264
Качество: WEB-DLRip 720 от SuperMin
Видео: 1280x536 (2.40:1), 2892 kbps, 24.000 fps
Звук: Русский (AC3, 2 ch, 192 Кбит/с)
Субтитры: нет
General
Unique ID : 59796513932717598564912529619469965281 (0x2CFC63C1C2A8FF3FF614B658469797E1)
Complete name : F:Легенда о воюющих царствах.mkv
Format : Matroska
Format version : Version 4
File size : 2.53 GiB
Duration : 1 h 57 min
Overall bit rate : 3 085 kb/s
Movie name : Легенда о воюющих царствах / Jue ji (2016) - #LORDKILL#
Encoded date : UTC 2019-08-03 08:45:52
Writing application : mkvmerge v21.0.0 ('Tardigrades Will Inherit The Earth') 64-bit
Writing library : libebml v1.3.5 + libmatroska v1.4.8

Video
ID : 1
Format : AVC
Format/Info : Advanced Video Codec
Format profile : High@L4.1
Format settings : CABAC / 11 Ref Frames
Format settings, CABAC : Yes
Format settings, Reference : 11 frames
Codec ID : V_MPEG4/ISO/AVC
Duration : 1 h 57 min
Bit rate : 2 892 kb/s
Width : 1 280 pixels
Height : 536 pixels
Display aspect ratio : 2.40:1
Frame rate mode : Constant
Frame rate : 23.976 (24000/1001) FPS
Color space : YUV
Chroma subsampling : 4:2:0
Bit depth : 8 bits
Scan type : Progressive
Bits/(Pixel*Frame) : 0.176
Stream size : 2.37 GiB (94%)
Writing library : x264 core 146 r2538 121396c
Encoding settings : cabac=1 / ref=11 / deblock=1:-2:-2 / analyse=0x3:0x113 / me=umh / subme=11 / psy=1 / psy_rd=1.00:0.15 / mixed_ref=1 / me_range=64 / chroma_me=1 / trellis=2 / 8x8dct=1 / cqm=0 / deadzone=21,11 / fast_pskip=0 / chroma_qp_offset=-3 / threads=12 / lookahead_threads=2 / sliced_threads=0 / nr=0 / decimate=1 / interlaced=0 / bluray_compat=0 / constrained_intra=0 / bframes=8 / b_pyramid=2 / b_adapt=2 / b_bias=0 / direct=1 / weightb=1 / open_gop=0 / weightp=2 / keyint=240 / keyint_min=23 / scenecut=40 / intra_refresh=0 / rc=crf / mbtree=0 / crf=19.5 / qcomp=0.60 / qpmin=0 / qpmax=69 / qpstep=4 / ip_ratio=1.40 / pb_ratio=1.30 / aq=1:1.00
Language : English
Default : Yes
Forced : No

Audio
ID : 2
Format : AC-3
Format/Info : Audio Coding 3
Commercial name : Dolby Digital
Codec ID : A_AC3
Duration : 1 h 57 min
Bit rate mode : Constant
Bit rate : 192 kb/s
Channel(s) : 2 channels
Channel layout : L R
Sampling rate : 48.0 kHz
Frame rate : 31.250 FPS (1536 SPF)
Bit depth : 16 bits
Compression mode : Lossy
Delay relative to video : 42 ms
Stream size : 162 MiB (6%)
Title : Дубляж (СВ-Дубль)
Language : Russian
Service kind : Complete Main
Default : Yes
Forced : No

Menu
00:00:00.000 : en:1
00:10:43.000 : en:2
00:21:53.000 : en:3
00:32:32.000 : en:4
00:44:36.000 : en:5
00:54:43.000 : en:6
01:02:36.000 : en:7
01:11:20.000 : en:8
01:21:43.000 : en:9
01:28:43.000 : en:10
01:38:26.000 : en:11
01:52:47.000 : en:12
Источник http://BlaTor.org

Трекер:  [ 03-Авг-2019 12:10 ]

  

Скачать .torrent

Размер .torrent файла 13 KB


Размер: 2.53 GB
Хэш (hash) релиза: 4fd300af31fde39a2303d3e55e87d6ef0c76cc9a
Подписка на обновления:

Еще никто не оставлял запись к записи скачать торрент Легенда о воюющих царствах Jue ji . Будь первым!

!Обратная связь