Скачать через торрент Танцуй сердцем Let's Dance Фильм бесплатно в хорошем качестве torrent

Скачивайте на UnionPeer.org фильмы через торрент без регистрации. Новинки кино в хорошем качестве через торрент. На UnionPeer.org можно скачать через торрент фильмы 2014 и 2015 годов. Самые новые фильмы.

Скачать торрент Танцуй сердцем Let's Dance бесплатно через .torrent фильм мультфильм сериал

Статистика раздачи
Размер:  1.93 GB   |    Зарегистрирован:  4 месяца 8 дней   |    .torrent скачан:  161 раз   |   
Раздают:  1  
 

Скачать Танцуй сердцем / Let's Dance (2019) WEB-DLRip-AVC от ExKinoRay | iTunes через torrent

 
загрузка...
 
Автор Сообщение

Galfimbul

avatar Galfimbul


Название: Танцуй сердцем
Оригинальное название: Let's Dance
Год выхода: 2019
Жанр: Драма, комедия, музыка
Режиссер: Ладислас Шолла
В ролях: Райан Бенсетти, Алексия Джордано, Гийом де Тонкедек, Мехди Керкуш, Брахим Заибат, Лин Рено, Фиорелла Кампанелла, Лаура Дефретен, Николя Ушар, Магдалена Мальфрэ

Описание: Энергия танца, безудержный ритм и биение сердца — ради этого Джозеф готов отказаться от всего и отправиться на битву лучших хип-хоп танцоров планеты. В Париже он встречает Хлою, которой предстоит отбор в легендарную балетную труппу Нью-Йорка. Вместе они мечтают создать невероятное объединение стилей, которое потрясет весь мир.



Производство: Франция, Бельгия, A Plus Image 8, Cinemage 13, CN7 Productions
Продолжительность: 01:44:00
Перевод: Дублированный | iTunes

Формат: MKV
Качество: WEB-DLRip-AVC
Видео: MPEG-4 AVC, 1024x428 (2.40:1), 23.976 fps, 1877 Kbps, 0.171 bit/pixel
Аудио 1: Russian: AC3, 6 ch, 384 Kbps - DUB, iTunes
Аудио 2: Ukrainian: AC3, 6 ch, 384 Kbps - DUB, iTunes
Субтитры: Русские
General
Unique ID : 225588832820374315903244320470002867794 (0xA9B6D42DDCE7C7C79BC48DF1007C9E52)
Complete name : F:LETS.DANCE.2019.AVC.ExKinoRay.mkv
Format : Matroska
Format version : Version 2
File size : 1.93 GiB
Duration : 1 h 44 min
Overall bit rate : 2 646 kb/s
Movie name : LETS DANCE 2019 from ExKinoRay
Encoded date : UTC 2019-08-05 02:21:29
Writing application : mkvmerge v5.6.0 ('Kenya Kane') built on May 27 2012 16:44:04
Writing library : libebml v1.2.3 + libmatroska v1.3.0

Video
ID : 1
Format : AVC
Format/Info : Advanced Video Codec
Format profile : High@L4.1
Format settings, CABAC : Yes
Format settings, ReFrames : 11 frames
Codec ID : V_MPEG4/ISO/AVC
Duration : 1 h 44 min
Bit rate : 1 877 kb/s
Width : 1 024 pixels
Height : 428 pixels
Display aspect ratio : 2.40:1
Frame rate mode : Constant
Frame rate : 25.000 FPS
Color space : YUV
Chroma subsampling : 4:2:0
Bit depth : 8 bits
Scan type : Progressive
Bits/(Pixel*Frame) : 0.171
Stream size : 1.33 GiB (69%)
Title : Enigma
Writing library : x264 core 152 r2851 ba24899
Encoding settings : cabac=1 / ref=11 / deblock=1:-2:-2 / analyse=0x3:0x113 / me=umh / subme=10 / psy=1 / psy_rd=1.05:0.10 / mixed_ref=1 / me_range=32 / chroma_me=1 / trellis=2 / 8x8dct=1 / cqm=0 / deadzone=21,11 / fast_pskip=0 / chroma_qp_offset=-3 / threads=12 / lookahead_threads=3 / sliced_threads=0 / nr=0 / decimate=0 / interlaced=0 / bluray_compat=0 / constrained_intra=0 / bframes=12 / b_pyramid=2 / b_adapt=2 / b_bias=0 / direct=3 / weightb=1 / open_gop=0 / weightp=2 / keyint=250 / keyint_min=25 / scenecut=40 / intra_refresh=0 / rc=2pass / mbtree=0 / bitrate=1877 / ratetol=1.0 / qcomp=0.60 / qpmin=0 / qpmax=51 / qpstep=4 / cplxblur=20.0 / qblur=0.5 / ip_ratio=1.40 / pb_ratio=1.30 / aq=1:1.00
Language : English
Default : Yes
Forced : No
Color range : Limited
Color primaries : BT.709
Transfer characteristics : BT.709
Matrix coefficients : BT.709

Audio #1
ID : 2
Format : AC-3
Format/Info : Audio Coding 3
Mode extension : CM (complete main)
Format settings, Endianness : Big
Codec ID : A_AC3
Duration : 1 h 44 min
Bit rate mode : Constant
Bit rate : 384 kb/s
Channel(s) : 6 channels
Channel positions : Front: L C R, Side: L R, LFE
Sampling rate : 48.0 kHz
Frame rate : 31.250 FPS (1536 spf)
Compression mode : Lossy
Stream size : 287 MiB (15%)
Title : iTunes
Language : Russian
Default : Yes
Forced : No

Audio #2
ID : 3
Format : AC-3
Format/Info : Audio Coding 3
Mode extension : CM (complete main)
Format settings, Endianness : Big
Codec ID : A_AC3
Duration : 1 h 44 min
Bit rate mode : Constant
Bit rate : 384 kb/s
Channel(s) : 6 channels
Channel positions : Front: L C R, Side: L R, LFE
Sampling rate : 48.0 kHz
Frame rate : 31.250 FPS (1536 spf)
Compression mode : Lossy
Stream size : 287 MiB (15%)
Title : iTunes
Language : Ukrainian
Default : No
Forced : No

Text
ID : 4
Format : UTF-8
Codec ID : S_TEXT/UTF8
Codec ID/Info : UTF-8 Plain Text
Language : Russian
Default : No
Forced : No

Menu
00:00:00.000 : en:Глава 1
00:07:55.440 : en:Глава 2
00:16:26.840 : en:Глава 3
00:24:34.400 : en:Глава 4
00:33:03.320 : en:Глава 5
00:41:22.000 : en:Глава 6
00:49:30.560 : en:Глава 7
00:58:25.440 : en:Глава 8
01:06:50.760 : en:Глава 9
01:16:11.000 : en:Глава 10
01:24:16.000 : en:Глава 11
01:33:29.720 : en:Глава 12


Автор релиза:
Источник http://BlaTor.org

Трекер:  [ 05-Авг-2019 06:30 ]

  

Скачать .torrent

Размер .torrent файла 19 KB


Размер: 1.93 GB
Хэш (hash) релиза: 32e488350bbe11b05d1babe4c84610871c0c6235
Подписка на обновления:

Еще никто не оставлял запись к записи скачать торрент Танцуй сердцем Let's Dance . Будь первым!

!Обратная связь