Скачать через торрент По воле божьей Gr?ce ? Dieu Фильм бесплатно в хорошем качестве torrent

Скачивайте на UnionPeer.org фильмы через торрент без регистрации. Новинки кино в хорошем качестве через торрент. На UnionPeer.org можно скачать через торрент фильмы 2014 и 2015 годов. Самые новые фильмы.

Скачать торрент По воле божьей Gr?ce ? Dieu бесплатно через .torrent фильм мультфильм сериал

Статистика раздачи
Размер:  3.9 GB   |    Зарегистрирован:  14 дней   |    .torrent скачан:  114 раз   |   
Раздают:  1  
   
загрузка...
 
Автор Сообщение

Galfimbul

avatar Galfimbul


По воле божьей /Gr?ce ? Dieu

Год выхода: 2018
Жанр: драма
Режиссер: Франсуа Озон
В ролях: Мельвиль Пупо, Дени Меноше, Сванн Арло, Эрик Каравака, Франсуа Марторе, Бернар Верле, Жозиан Баласко, Мартина Эрель, Элен Венсан, Франсуа Шатто и др.

Описание: Александр, Франсуа и Жиль, взрослые состоявшиеся мужчины, объединяются в борьбе против почтенного священника, некогда поломавшего жизнь им и еще десяткам мальчиков. В этой праведной битве — с собственной уязвимостью и чужими предрассудками, с косными институтами и молчаливыми свидетелями — каждому из мужчин предстоит выбрать, во что верить, над чем смеяться, и кого прощать.



Страна: Франция, Бельгия
Продолжительность: 02:17:34
Перевод: профессиональный (дублированный) line

Файл
Качество: WEB-DL 1080p
Видео: MPEG-4 AVC, 5000 kbps, 1920x1080
Звук: AC3, 2 ch, 192 kbps

Без рекламы!
Общее
Уникальный идентификатор : 41702108128525729719338435035280763597 (0x1F5F88AC494A81F62C26377F5DF0EACD)
Полное имя : Po.vole.bozhey2018. WEB-DL 1080p.ELEKTRI4KA.UNIONGANG.mkv
Формат : Matroska
Версия формата : Version 4
Размер файла : 3,90 Гбайт
Продолжительность : 2 ч. 17 м.
Общий поток : 4057 Кбит/сек
Дата кодирования : UTC 2019-07-14 10:05:14
Программа кодирования : mkvmerge v30.1.0 ('Forever And More') 64-bit
Библиотека кодирования : libebml v1.3.6 + libmatroska v1.4.9

Видео
Идентификатор : 1
Формат : AVC
Формат/Информация : Advanced Video Codec
Профиль формата : High@L4
Настройки формата : CABAC / 4 Ref Frames
Параметр CABAC формата : Да
Параметр RefFrames формата : 4 кадра
Идентификатор кодека : V_MPEG4/ISO/AVC
Продолжительность : 2 ч. 17 м.
Битрейт : 3863 Кбит/сек
Номинальный битрейт : 5000 Кбит/сек
Ширина : 1920 пикселей
Высота : 1080 пикселей
Соотношение сторон : 16:9
Режим частоты кадров : Постоянный
Частота кадров : 24,000 кадра/сек
Цветовое пространство : YUV
Субдискретизация насыщенности : 4:2:0
Битовая глубина : 8 бит
Тип развёртки : Прогрессивная
Бит/(Пиксели*Кадры) : 0.078
Размер потока : 3,71 Гбайт (95%)
Библиотека кодирования : x264 core 148 r2721 72d53ab
Настройки программы : cabac=1 / ref=4 / deblock=1:0:0 / analyse=0x3:0x133 / me=umh / subme=10 / psy=1 / psy_rd=1.00:0.00 / mixed_ref=1 / me_range=24 / chroma_me=1 / trellis=2 / 8x8dct=1 / cqm=0 / deadzone=21,11 / fast_pskip=1 / chroma_qp_offset=-2 / threads=34 / lookahead_threads=5 / sliced_threads=0 / nr=0 / decimate=1 / interlaced=0 / bluray_compat=0 / constrained_intra=0 / bframes=8 / b_pyramid=2 / b_adapt=2 / b_bias=0 / direct=3 / weightb=1 / open_gop=0 / weightp=2 / keyint=96 / keyint_min=48 / scenecut=40 / intra_refresh=0 / rc_lookahead=60 / rc=2pass / mbtree=1 / bitrate=5000 / ratetol=1.0 / qcomp=0.60 / qpmin=0 / qpmax=69 / qpstep=4 / cplxblur=20.0 / qblur=0.5 / vbv_maxrate=5500 / vbv_bufsize=920 / nal_hrd=none / filler=0 / ip_ratio=1.40 / aq=1:1.00
Default : Да
Forced : Нет
Цветовой диапазон : Full

Аудио
Идентификатор : 2
Формат : AC-3
Формат/Информация : Audio Coding 3
Коммерческое название : Dolby Digital
Идентификатор кодека : A_AC3
Продолжительность : 2 ч. 17 м.
Вид битрейта : Постоянный
Битрейт : 192 Кбит/сек
Каналы : 2 канала
Channel layout : L R
Частота : 48,0 КГц
Частота кадров : 31,250 кадров/сек (1536 SPF)
Битовая глубина : 16 бит
Метод сжатия : С потерями
Размер потока : 189 Мбайт (5%)
ServiceKind : Complete Main
Default : Да
Forced : Нет
Источник http://BlaTor.org

Трекер:  [ 05-Авг-2019 13:10 ]

  

Скачать .torrent

Размер .torrent файла 78 KB


Размер: 3.9 GB
Хэш (hash) релиза: 360e5cd5ba0aaf023de5ddd9f1962da1c4bb6728
Подписка на обновления:

Еще никто не оставлял запись к записи скачать торрент По воле божьей Gr?ce ? Dieu . Будь первым!

!Обратная связь