Скачать через торрент Пушистый шпион Marnies Welt Фильм бесплатно в хорошем качестве torrent

Скачивайте на UnionPeer.org фильмы через торрент без регистрации. Новинки кино в хорошем качестве через торрент. На UnionPeer.org можно скачать через торрент фильмы 2014 и 2015 годов. Самые новые фильмы.

Скачать торрент Пушистый шпион Marnies Welt бесплатно через .torrent фильм мультфильм сериал

Статистика раздачи
Размер:  1.53 GB   |    Зарегистрирован:  2 месяца 8 дней   |    .torrent скачан:  298 раз   |   
Раздают:  3  
   
загрузка...
 
Автор Сообщение

Galfimbul

avatar Galfimbul


Пушистый шпион / Marnies Welt

Год выпуска: 2018
Жанр: мультфильм, приключения
Режиссер: Вольфганг Лауэнштайн, Кристоф Лауэнштайн
В ролях: Эрик Борнер, Александра Нелдель, Аксель Праль

Избалованная рыжая кошечка Марни живёт в доме со своей хозяйкой в тепле и уюте и в ус не дует. Но ее жизнь радикально меняется, когда она становится жертвой грабителей-преступников, которые отправляют ее в коробке в другой город. В дороге коробка теряется и Марни оказывается где-то в глухой деревне, один на один с реальной жизнью. Она встречает Пса, Петуха и Осла и тут начинаются приключения… Марни и ее новым друзьям предстоит найти того, кто стоит за загадочными ограблениями в городе и обезвредить эту банду...



Страна: Германия, Бельгия
Студия: Grid Animation, Philm CGI, Scope Pictures, Seven Pictures, UFA Fiction
Продолжительность: 01:32:03
Перевод: Дубляж
Файл
Кодек: H.264
Качество: WEB-DLRip 720 от SuperMin
Видео: 1280x696 (1.85:1), 1998 kbps, 24.000 fps
Звук: Русский (AC3, 6 ch, 384 Кбит/с)
Субтитры: нет
General
Unique ID : 238718467090500886115902659299243844475 (0xB3978120ABF84D195596F025184DE37B)
Complete name : G:Пушистый шпион.mkv
Format : Matroska
Format version : Version 4
File size : 1.53 GiB
Duration : 1 h 32 min
Overall bit rate : 2 384 kb/s
Movie name : Пушистый шпион / Marnies Welt (2018) - #LORDKILL#
Encoded date : UTC 2019-08-05 12:53:14
Writing application : mkvmerge v21.0.0 ('Tardigrades Will Inherit The Earth') 64-bit
Writing library : libebml v1.3.5 + libmatroska v1.4.8

Video
ID : 1
Format : AVC
Format/Info : Advanced Video Codec
Format profile : High@L4.1
Format settings : CABAC / 9 Ref Frames
Format settings, CABAC : Yes
Format settings, Reference : 9 frames
Codec ID : V_MPEG4/ISO/AVC
Duration : 1 h 32 min
Bit rate : 1 998 kb/s
Width : 1 280 pixels
Height : 696 pixels
Display aspect ratio : 1.85:1
Frame rate mode : Constant
Frame rate : 24.000 FPS
Color space : YUV
Chroma subsampling : 4:2:0
Bit depth : 8 bits
Scan type : Progressive
Bits/(Pixel*Frame) : 0.093
Stream size : 1.28 GiB (84%)
Writing library : x264 core 146 r2538 121396c
Encoding settings : cabac=1 / ref=9 / deblock=1:-2:-2 / analyse=0x3:0x113 / me=umh / subme=11 / psy=1 / psy_rd=1.00:0.15 / mixed_ref=1 / me_range=64 / chroma_me=1 / trellis=2 / 8x8dct=1 / cqm=0 / deadzone=21,11 / fast_pskip=0 / chroma_qp_offset=-3 / threads=12 / lookahead_threads=2 / sliced_threads=0 / nr=0 / decimate=1 / interlaced=0 / bluray_compat=0 / constrained_intra=0 / bframes=8 / b_pyramid=2 / b_adapt=2 / b_bias=0 / direct=1 / weightb=1 / open_gop=0 / weightp=2 / keyint=240 / keyint_min=23 / scenecut=40 / intra_refresh=0 / rc=crf / mbtree=0 / crf=20.5 / qcomp=0.60 / qpmin=0 / qpmax=69 / qpstep=4 / ip_ratio=1.40 / pb_ratio=1.30 / aq=1:1.00
Language : English
Default : Yes
Forced : No

Audio
ID : 2
Format : AC-3
Format/Info : Audio Coding 3
Commercial name : Dolby Digital
Codec ID : A_AC3
Duration : 1 h 32 min
Bit rate mode : Constant
Bit rate : 384 kb/s
Channel(s) : 6 channels
Channel layout : L R C LFE Ls Rs
Sampling rate : 48.0 kHz
Frame rate : 31.250 FPS (1536 SPF)
Bit depth : 16 bits
Compression mode : Lossy
Stream size : 253 MiB (16%)
Language : Russian
Service kind : Complete Main
Default : Yes
Forced : No

Menu
00:00:00.000 : en:Глава 1
00:08:29.500 : en:Глава 2
00:13:45.333 : en:Глава 3
00:19:43.666 : en:Глава 4
00:25:15.499 : en:Глава 5
00:32:12.749 : en:Глава 6
00:39:01.499 : en:Глава 7
00:45:14.249 : en:Глава 8
00:51:36.707 : en:Глава 9
00:56:59.707 : en:Глава 10
01:03:46.748 : en:Глава 11
01:09:14.539 : en:Глава 12
01:14:57.746 : en:Глава 13
01:20:38.121 : en:Глава 14
Источник http://BlaTor.org

Трекер:  [ 05-Авг-2019 18:00 ]

  

Скачать .torrent

Размер .torrent файла 15 KB


Размер: 1.53 GB
Хэш (hash) релиза: 493f6b86d5f90b0e4383a90db9f17cd51c1ad2ce
Подписка на обновления:

Торренты, похожие на Пушистый шпион Marnies Welt скачать торрент

Форум Название Автор Размер S L Добавлен
Мультфильмы 2016-2018 (Новинки мультфильмов) ·%· Пушистый шпион / Marnies Welt (2018) WEB-DLRip от Portablius | iTunes Galfimbul 785078272749 MB 0 0 1558271416

16:10

19-Май-19

Еще никто не оставлял запись к записи скачать торрент Пушистый шпион Marnies Welt . Будь первым!

!Обратная связь