Скачать через торрент Курск Kursk Фильм бесплатно в хорошем качестве torrent

Скачивайте на UnionPeer.org фильмы через торрент без регистрации. Новинки кино в хорошем качестве через торрент. На UnionPeer.org можно скачать через торрент фильмы 2014 и 2015 годов. Самые новые фильмы.

Скачать торрент Курск Kursk бесплатно через .torrent фильм мультфильм сериал

Статистика раздачи
Размер:  2.15 GB   |    Зарегистрирован:  11 дней   |    .torrent скачан:  290 раз   |   
Раздают:  6  
   
загрузка...
 
Автор Сообщение

Galfimbul

avatar Galfimbul


Курск /Kursk

Год выпуска: 2018
Жанр: Боевик, триллер, драма, история
Режиссер: Томас Винтерберг
В ролях: Леа Сейду, Колин Фёрт, Маттиас Шонартс, Микаэл Нюквист, Макс фон Сюдов, Аугуст Диль, Стивен Вэддингтон, Маттиас Швайгхефер, Пернилла Аугуст, Златко Бурич

Описание:
Фильм о событиях 2000 года, связанных с подлодкой «Курск». Вся правда о мужестве и стойкости российских подводников, о разногласиях и взаимопомощи, конфликтах и единении, о преданности и любви.




Страна: Бельгия, Люксембург
Студия: Belga Productions, VIA EST
Продолжительность: 01:57:37
Перевод: Дублированный | iTunes

БЕЗ КАКОЙ-ЛИБО РЕКЛАМЫ!

Формат: MKV
Качество: BDRip-AVC
Видео: MPEG-4 AVC, 1024x428 (2.40:1), 24.000 fps, 1780 Kbps, 0.169 bit/pixel
Аудио 1: 48 kHz, AC3, 5.1, 384 Kbps | iTunes | RUS |
Аудио 2: 48 kHz, AC3, 5.1, 448 Kbps | Оригинал | ENG |
Субтитры: Русские, английские
General
Unique ID : 185660622114464204814961460421266278828 (0x8BACEF66CD42B278B07E756702A489AC)
Complete name : F:Kursk.2018.iTunes.BDRip.AVC.ExKinoRay.mkv
Format : Matroska
Format version : Version 2
File size : 2.15 GiB
Duration : 1 h 57 min
Overall bit rate : 2 612 kb/s
Movie name : Kursk 2018 from ExKinoray
Encoded date : UTC 2019-08-07 23:55:02
Writing application : mkvmerge v5.6.0 ('Kenya Kane') built on May 27 2012 16:44:04
Writing library : libebml v1.2.3 + libmatroska v1.3.0

Video
ID : 1
Format : AVC
Format/Info : Advanced Video Codec
Format profile : High@L4.1
Format settings, CABAC : Yes
Format settings, ReFrames : 12 frames
Codec ID : V_MPEG4/ISO/AVC
Duration : 1 h 57 min
Bit rate : 1 780 kb/s
Width : 1 024 pixels
Height : 428 pixels
Display aspect ratio : 2.40:1
Frame rate mode : Constant
Frame rate : 24.000 FPS
Color space : YUV
Chroma subsampling : 4:2:0
Bit depth : 8 bits
Scan type : Progressive
Bits/(Pixel*Frame) : 0.169
Stream size : 1.42 GiB (66%)
Title : Enigma
Writing library : x264 core 152 r2851 ba24899
Encoding settings : cabac=1 / ref=12 / deblock=1:-2:-2 / analyse=0x3:0x113 / me=umh / subme=10 / psy=1 / psy_rd=0.98:0.06 / mixed_ref=1 / me_range=32 / chroma_me=1 / trellis=2 / 8x8dct=1 / cqm=0 / deadzone=21,11 / fast_pskip=0 / chroma_qp_offset=-3 / threads=12 / lookahead_threads=3 / sliced_threads=0 / nr=0 / decimate=0 / interlaced=0 / bluray_compat=0 / constrained_intra=0 / bframes=10 / b_pyramid=2 / b_adapt=2 / b_bias=0 / direct=3 / weightb=1 / open_gop=0 / weightp=2 / keyint=240 / keyint_min=24 / scenecut=40 / intra_refresh=0 / rc=2pass / mbtree=0 / bitrate=1780 / ratetol=1.0 / qcomp=0.60 / qpmin=0 / qpmax=51 / qpstep=4 / cplxblur=20.0 / qblur=0.5 / ip_ratio=1.40 / pb_ratio=1.30 / aq=2:0.90
Language : English
Default : Yes
Forced : No
Color range : Limited
Color primaries : BT.709
Transfer characteristics : BT.709
Matrix coefficients : BT.709

Audio #1
ID : 2
Format : AC-3
Format/Info : Audio Coding 3
Mode extension : CM (complete main)
Format settings, Endianness : Big
Codec ID : A_AC3
Duration : 1 h 57 min
Bit rate mode : Constant
Bit rate : 384 kb/s
Channel(s) : 6 channels
Channel positions : Front: L C R, Side: L R, LFE
Sampling rate : 48.0 kHz
Frame rate : 31.250 FPS (1536 spf)
Compression mode : Lossy
Stream size : 323 MiB (15%)
Title : iTunes
Language : Russian
Default : Yes
Forced : No

Audio #2
ID : 3
Format : AC-3
Format/Info : Audio Coding 3
Mode extension : CM (complete main)
Format settings, Endianness : Big
Codec ID : A_AC3
Duration : 1 h 57 min
Bit rate mode : Constant
Bit rate : 448 kb/s
Channel(s) : 6 channels
Channel positions : Front: L C R, Side: L R, LFE
Sampling rate : 48.0 kHz
Frame rate : 31.250 FPS (1536 spf)
Compression mode : Lossy
Stream size : 377 MiB (17%)
Language : English
Default : No
Forced : No

Text #1
ID : 4
Format : UTF-8
Codec ID : S_TEXT/UTF8
Codec ID/Info : UTF-8 Plain Text
Title : Forced
Language : Russian
Default : Yes
Forced : No

Text #2
ID : 5
Format : UTF-8
Codec ID : S_TEXT/UTF8
Codec ID/Info : UTF-8 Plain Text
Title : Full
Language : Russian
Default : No
Forced : No

Text #3
ID : 6
Format : UTF-8
Codec ID : S_TEXT/UTF8
Codec ID/Info : UTF-8 Plain Text
Language : English
Default : No
Forced : No

Menu
00:00:00.000 : en:Chapter 01
00:10:35.000 : en:Chapter 02
00:20:02.000 : en:Chapter 03
00:31:43.000 : en:Chapter 04
00:38:38.000 : en:Chapter 05
00:48:32.000 : en:Chapter 06
00:59:55.000 : en:Chapter 07
01:08:57.000 : en:Chapter 08
01:18:16.000 : en:Chapter 09
01:28:53.000 : en:Chapter 10
01:38:18.000 : en:Chapter 11
01:47:32.000 : en:Chapter 12


Автор релиза:
Источник http://BlaTor.org

Трекер:  [ 08-Авг-2019 04:00 ]

  

Скачать .torrent

Размер .torrent файла 11 KB


Размер: 2.15 GB
Хэш (hash) релиза: 142ecb9b15a2b8f5d43e5b67495e1bbe14a50810
Подписка на обновления:

Торренты, похожие на Курск Kursk скачать торрент

Форум Название Автор Размер S L Добавлен
Зарубежные фильмы 2016-2018 (Новинки зарубежного кино) ·%· Курск / Kursk (2018) BDRip-HEVC 1080p | HDRezka Studio Galfimbul 71855273396.69 GB 3 0 1553378432

01:00

24-Мар-19

Зарубежные фильмы 2016-2018 (Новинки зарубежного кино) ·%· Курск / Kursk (2018) BDRip от ExKinoRay | HDRezka Studio Galfimbul 15678141301.46 GB 2 0 1553196654

22:30

21-Мар-19

Зарубежные фильмы 2016-2018 (Новинки зарубежного кино) ·%· Курск / Kursk (2018) BDRip от ExKinoRay | HDRezka Studio Galfimbul 23427576762.18 GB 0 0 1553196633

22:30

21-Мар-19

Зарубежные фильмы 2016-2018 (Новинки зарубежного кино) ·%· Курск / Kursk (2018) HDRip от Scarabey | HDRezka Studio Galfimbul 15539466241.45 GB 0 0 1552756240

20:10

16-Мар-19

Зарубежные фильмы 2016-2018 (Новинки зарубежного кино) ·%· Курск / Kursk (2018) BDRip от MegaPeer | HDRezka Studio Galfimbul 781996178746 MB 0 0 1552747213

17:40

16-Мар-19

Зарубежные фильмы 2016-2018 (Новинки зарубежного кино) ·%· Курск / Kursk (2018) BDRemux 1080p | HDRezka Studio Galfimbul 2795064816426.03 GB 2 0 1552729220

12:40

16-Мар-19

Зарубежные фильмы 2016-2018 (Новинки зарубежного кино) ·%· Курск / Kursk (2018) BDRip от GeneralFilm | HDRezka Studio Galfimbul 15626895361.46 GB 2 0 1552717232

09:20

16-Мар-19

Зарубежные фильмы 2016-2018 (Новинки зарубежного кино) ·%· Курск / Kursk (2018) BDRip-AVC от ExKinoRay | HDRezka Studio Galfimbul 779043856743 MB 0 0 1552714212

08:30

16-Мар-19

Зарубежные фильмы 2016-2018 (Новинки зарубежного кино) ·%· Курск / Kursk (2018) BDRip-AVC от OlLanDGroup | HDRezka Studio Galfimbul 15617859111.45 GB 0 0 1552706412

06:20

16-Мар-19

Зарубежные фильмы 2016-2018 (Новинки зарубежного кино) ·%· Курск / Kursk (2018) BDRip 720p от ExKinoRay | HDRezka Studio Galfimbul 39813795903.71 GB 0 0 1552692669

02:31

16-Мар-19

Зарубежные фильмы 2016-2018 (Новинки зарубежного кино) ·%· Курск / Kursk (2018) BDRip-AVC от ExKinoRay | HDRezka Studio Galfimbul 21347906881.99 GB 0 0 1552686613

00:50

16-Мар-19

Зарубежные фильмы 2016-2018 (Новинки зарубежного кино) ·%· Курск / Kursk (2018) HDRip | HDRezka Studio Galfimbul 23365999912.18 GB 0 0 1552680639

23:10

15-Мар-19

Зарубежные фильмы 2016-2018 (Новинки зарубежного кино) ·%· Курск / Kursk (2018) HDRip от Generalfilm | КПК | HDRezka Studio Galfimbul 466178143445 MB 0 0 1552672231

20:50

15-Мар-19

Зарубежные фильмы 2016-2018 (Новинки зарубежного кино) ·%· Курск / Kursk (2018) BDRip 720p от Scarabey | HDRezka Studio Galfimbul 49941985834.65 GB 0 0 1552671057

20:30

15-Мар-19

Зарубежные фильмы 2016-2018 (Новинки зарубежного кино) ·%· Курск / Kursk (2018) BDRip от MegaPeer | HDRezka Studio Galfimbul 15718319041.46 GB 0 0 1552655447

16:10

15-Мар-19

Зарубежные фильмы 2016-2018 (Новинки зарубежного кино) ·%· Курск / Kursk (2018) BDRip 1080p от OlLanDGroup | HDRezka Studio Galfimbul 1295137952812.06 GB 0 0 1552655432

16:10

15-Мар-19

Документальные фильмы и телепередачи ·· Битва полководцев. Манштейн против Ватутина (Курск) / Clash of Warriors. Manstein vs. Vatutin (Kursk) (Джонатан Мартин / Jonathan Martin) [2002, Документальный, война, история, биография, DVDRip] Galfimbul 744324798710 MB 0 0 1486339542

03:05

6-Фев-17

Документальные фильмы и телепередачи ·· Великие Войны №7 / 1939-1945 Вторая Мировая Война - Курская Битва / Hell's Battlefield: Kursk [2000, Документальный, война, история, кинохроника, DVDRip] Galfimbul 627574784599 MB 0 0 1372603004

17:36

30-Июн-13

Еще никто не оставлял запись к записи скачать торрент Курск Kursk . Будь первым!

!Обратная связь