Скачать через торрент Аладдин Aladdin Фильм бесплатно в хорошем качестве torrent

Скачивайте на UnionPeer.org фильмы через торрент без регистрации. Новинки кино в хорошем качестве через торрент. На UnionPeer.org можно скачать через торрент фильмы 2014 и 2015 годов. Самые новые фильмы.

Скачать торрент Аладдин Aladdin бесплатно через .torrent фильм мультфильм сериал

Статистика раздачи
Размер:  1.5 GB   |    Зарегистрирован:  5 месяцев 2 дня   |    .torrent скачан:  349 раз   |   
Раздают:  1  
 

Скачать Аладдин / Aladdin (2019) WEB-DLRip-AVC от ExKinoRay | HDRezka Studio через torrent

 
загрузка...
 
Автор Сообщение

Galfimbul

avatar Galfimbul


Название: Аладдин
Оригинальное название: Aladdin
Год выпуска: 2019
Жанр: Мюзикл, фэнтези, мелодрама, комедия, приключения, семейный
Режиссер: Гай Ричи
В ролях: Мена Массуд, Наоми Скотт, Уилл Смит, Билли Магнуссен, Алан Тьюдик, Назим Педрад, Марван Кензари, Нуман Аджар, Фрэнк Уэлкер, Навид Негабан

О фильме: Молодой воришка по имени Аладдин хочет стать принцем, чтобы жениться на принцессе Жасмин. Тем временем визирь Аграбы Джафар, намеревается захватить власть над Аграбой, а для этого он стремится заполучить волшебную лампу, хранящуюся в пещере чудес, доступ к которой разрешен лишь тому, кого называют «алмаз неограненный», и этим человеком является никто иной как сам Аладдин.



Страна: США
Студия: Walt Disney Pictures, Lin Pictures, Rideback
Продолжительность: 02:07:58
Перевод: Профессиональный (многоголосый, закадровый) | HDRezka Studio со вставками дубляжа на песни (спасибо: gemi_ni)

Формат: MKV
Качество: WEB-DLRip-AVC
Видео: MPEG-4 AVC, 1486 Kbps, 720x302 (2.40:1), 23.976 кадр/с
Аудио : 48 kHz, AC3, 2.0, 192 Kbps | RUS |
Субтитры: Русские (форсированные на непереведённые места)
General
Unique ID : 240132887220861518782409399636393063016 (0xB4A7E96C950757B197A408504299F268)
Complete name : D:Aladdin.2019.MVO.WEB-DLRip.AVC.ExKinoRay.mkv
Format : Matroska
Format version : Version 2
File size : 1.50 GiB
Duration : 2 h 7 min
Overall bit rate : 1 680 kb/s
Movie name : Aladdin 2019 from ExKinoRay
Encoded date : UTC 2019-08-19 22:34:33
Writing application : mkvmerge v5.6.0 ('Kenya Kane') built on May 27 2012 16:44:04
Writing library : libebml v1.2.3 + libmatroska v1.3.0

Video
ID : 1
Format : AVC
Format/Info : Advanced Video Codec
Format profile : High@L4.1
Format settings, CABAC : Yes
Format settings, ReFrames : 11 frames
Codec ID : V_MPEG4/ISO/AVC
Duration : 2 h 7 min
Bit rate : 1 486 kb/s
Width : 720 pixels
Height : 302 pixels
Display aspect ratio : 2.40:1
Frame rate mode : Constant
Frame rate : 23.976 (24000/1001) FPS
Original frame rate : 23.976 (23976/1000) FPS
Color space : YUV
Chroma subsampling : 4:2:0
Bit depth : 8 bits
Scan type : Progressive
Bits/(Pixel*Frame) : 0.285
Stream size : 1.30 GiB (87%)
Title : Enigma
Writing library : x264 core 152 r2851 ba24899
Encoding settings : cabac=1 / ref=11 / deblock=1:-2:-2 / analyse=0x3:0x113 / me=umh / subme=10 / psy=1 / psy_rd=1.06:0.10 / mixed_ref=1 / me_range=32 / chroma_me=1 / trellis=2 / 8x8dct=1 / cqm=0 / deadzone=21,11 / fast_pskip=0 / chroma_qp_offset=-3 / threads=9 / lookahead_threads=1 / sliced_threads=0 / nr=0 / decimate=0 / interlaced=0 / bluray_compat=0 / constrained_intra=0 / bframes=9 / b_pyramid=2 / b_adapt=2 / b_bias=0 / direct=3 / weightb=1 / open_gop=0 / weightp=2 / keyint=240 / keyint_min=23 / scenecut=40 / intra_refresh=0 / rc=2pass / mbtree=0 / bitrate=1486 / ratetol=1.0 / qcomp=0.60 / qpmin=0 / qpmax=51 / qpstep=4 / cplxblur=20.0 / qblur=0.5 / ip_ratio=1.30 / pb_ratio=1.20 / aq=2:1.00
Default : Yes
Forced : No
Color range : Limited
Color primaries : BT.709
Transfer characteristics : BT.709
Matrix coefficients : BT.709

Audio
ID : 2
Format : AC-3
Format/Info : Audio Coding 3
Mode extension : CM (complete main)
Format settings, Endianness : Big
Codec ID : A_AC3
Duration : 2 h 7 min
Bit rate mode : Constant
Bit rate : 192 kb/s
Channel(s) : 2 channels
Channel positions : Front: L R
Sampling rate : 48.0 kHz
Frame rate : 31.250 FPS (1536 spf)
Compression mode : Lossy
Stream size : 176 MiB (11%)
Title : MVO
Language : Russian
Default : Yes
Forced : No

Text
ID : 3
Format : UTF-8
Codec ID : S_TEXT/UTF8
Codec ID/Info : UTF-8 Plain Text
Title : Forced
Language : Russian
Default : Yes
Forced : No


Автор релиза:
Источник http://BlaTor.org

Трекер:  [ 20-Авг-2019 02:30 ]

  

Скачать .torrent

Размер .torrent файла 15 KB


Размер: 1.5 GB
Хэш (hash) релиза: 5e4e9db9dce23e49ae54d459cbc08c52fbbe39ee
Подписка на обновления:

Торренты, похожие на Аладдин Aladdin скачать торрент

Форум Название Автор Размер S L Добавлен
Зарубежные фильмы 2016-2020 (Новинки зарубежного кино) ·%· Аладдин / Aladdin (2019) BDRip от HQ-ViDEO | D | Лицензия Galfimbul 23399424002.18 GB 0 0 1578532214

04:10

9-Янв-20

Зарубежные фильмы 2016-2020 (Новинки зарубежного кино) ·%· Аладдин / Aladdin (2019) DVD5 Galfimbul 46848675844.36 GB 0 0 1572527425

16:10

31-Окт-19

Зарубежные фильмы 2016-2020 (Новинки зарубежного кино) ·%· Аладдин / Aladdin (2019) DVD9 | D, P | Custom Galfimbul 67471933446.28 GB 0 0 1572437416

15:10

30-Окт-19

Зарубежные фильмы 2016-2020 (Новинки зарубежного кино) ·%· Аладдин / Aladdin (2019) BDRemux 1080p от селезень | 3D-Video | Лицензия Galfimbul 4490919936041.82 GB 0 0 1571829611

14:20

23-Окт-19

Зарубежные фильмы 2016-2020 (Новинки зарубежного кино) ·%· Аладдин / Aladdin (2019) Hybrid 1080p | D, P | IMAX Galfimbul 68125370636.34 GB 0 0 1571160636

20:30

15-Окт-19

Зарубежные фильмы 2016-2020 (Новинки зарубежного кино) ·%· Аладдин / Aladdin (2019) BDRip-AVC | D | Лицензия Galfimbul 781977759746 MB 0 0 1570975843

17:10

13-Окт-19

Зарубежные фильмы 2016-2020 (Новинки зарубежного кино) ·%· Аладдин / Aladdin (2019) WEBRip 1080p | D | Open Matte Galfimbul 59762036965.57 GB 3 0 1570918223

01:10

13-Окт-19

Мультфильмы 2016-2020 (Новинки мультфильмов) ·%· Аладдин / Aladdin (2019) BDRip-AVC от OlLanDGroup | Лицензия Galfimbul 15688400651.46 GB 0 0 1570647013

21:50

9-Окт-19

Зарубежные фильмы 2016-2020 (Новинки зарубежного кино) ·%· Аладдин / Aladdin (2019) UHD BDRip-HEVC 2160p | 4K | HDR | Лицензия, P Galfimbul 1548880392314.43 GB 0 0 1570138209

00:30

4-Окт-19

Зарубежные фильмы 2016-2020 (Новинки зарубежного кино) ·%· Аладдин / Aladdin (2019) BDRemux 1080p от селезень | Лицензия Galfimbul 2955911598427.53 GB 0 0 1570059010

02:30

3-Окт-19

Зарубежные фильмы 2016-2020 (Новинки зарубежного кино) ·%· Аладдин / Aladdin (2019) BDRip 720p от селезень | Лицензия Galfimbul 85540059447.97 GB 0 0 1570057812

02:10

3-Окт-19

Зарубежные фильмы 2016-2020 (Новинки зарубежного кино) ·%· Аладдин / Aladdin (2019) BDRip 1080p от селезень | Лицензия Galfimbul 1398157999213.02 GB 0 0 1570056608

01:50

3-Окт-19

Зарубежные фильмы 2016-2020 (Новинки зарубежного кино) ·%· Аладдин / Aladdin (2019) Blu-ray EUR 1080p | Лицензия Galfimbul 3972210964736.99 GB 0 0 1570054227

01:10

3-Окт-19

Зарубежные фильмы 2016-2020 (Новинки зарубежного кино) ·%· Аладдин / Aladdin (2019) BDRip 720p | D, P | iTunes Galfimbul 57842494865.39 GB 0 0 1567151408

10:50

30-Авг-19

Зарубежные фильмы 2016-2020 (Новинки зарубежного кино) ·%· Аладдин / Aladdin (2019) BDRip от MegaPeer | iTunes Galfimbul 22827382872.13 GB 0 0 1567107631

22:40

29-Авг-19

Зарубежные фильмы 2016-2020 (Новинки зарубежного кино) ·%· Аладдин / Aladdin (2019) BDRip-AVC от OlLanDGroup | iTunes Galfimbul 25298888722.36 GB 2 0 1567107616

22:40

29-Авг-19

Зарубежные фильмы 2016-2020 (Новинки зарубежного кино) ·%· Аладдин / Aladdin (2019) WEB-DL 1080p | HDRezka Studio Galfimbul 64139139035.97 GB 2 0 1565605824

13:30

12-Авг-19

Зарубежные фильмы 2016-2020 (Новинки зарубежного кино) ·%· Аладдин / Aladdin (2019) HDRip 1080p | Тизер Galfimbul 376816363359 MB 0 0 1545531062

05:11

23-Дек-18

Мультфильмы до 2016 ·· Аладдин / Aladdin (Рон Клементс / Ron Clements, Джон Маскер / John Musker) [1992, США, приключения, семейный, мультфильм, LDRip > DVD5 (Custom)] AVO (Михалев, Гаврилов) Galfimbul 34182062083.18 GB 0 0 1521217831

19:30

16-Мар-18

Ramsikli

Как показывает практика - интересы у людей очень разные. Именно поэтому мы смотрим кино целой компанией, чтобы потом обсудить. Согласитесь, это крутой вариант провести время. А одному можно и иное занятие найти, к примеру - ставки на спорт. Лично для меня БК «Фонбет» https://sportfakt.ru/bk/bukmekerskaya-kontora-fonbet открыло большие возможности.

Хотите добавить комментарий к записи скачать торрент Аладдин Aladdin

!Обратная связь