Скачать через торрент Годзилла 2: Король монстров Godzilla: King of the Monsters Фильм бесплатно в хорошем качестве torrent

Скачивайте на UnionPeer.org фильмы через торрент без регистрации. Новинки кино в хорошем качестве через торрент. На UnionPeer.org можно скачать через торрент фильмы 2014 и 2015 годов. Самые новые фильмы.

Скачать торрент Годзилла 2: Король монстров Godzilla: King of the Monsters бесплатно через .torrent фильм мультфильм сериал

Статистика раздачи
Размер:  10.55 GB   |    Зарегистрирован:  28 дней   |    .torrent скачан:  583 раза   |   
Раздают:  5  
   
загрузка...
 
Автор Сообщение

Galfimbul

avatar Galfimbul


Годзилла 2: Король монстров /Godzilla: King of the Monsters

Год выхода: 2019
Жанр: Укажите жанры, разделяя запятыми
Режиссер: Майкл Догерти
В ролях: Кайл Чандлер, Вера Фармига, Милли Бобби Браун, Кэн Ватанабэ, Цзыи Чжан, Брэдли Уитфорд, Салли Хокинс, Чарльз Дэнс, Томас Миддлдитч, Аиша Хайндс, О`Ши Джексон мл., Дэвид Стрэтэйрн, Энтони Рамос, Элизабет Ладлоу, Джонатан Ховард, Си Си Эйч Паундер, Джо Мортон, Тайлер Крумли, Келли Гарнер

О фильме:
История рассказывает о героических усилиях криптозоологического агентства «Монарх» по сдерживанию гигантских монстров. В этот раз против могучего Годзиллы выступают Мотра, Родан и ультимативный кайдзю - трёхголовый монстр Кинг Гидора. Когда эти древние суперхищники, со временем превратившиеся в полузабытые мифы, восстают снова, чтобы сойтись в схватке, человечеству остаётся отойти в сторонку и постараться не погибнуть.



Страна: США, Япония
Студия: Warner Bros., Legendary Entertainment, Toho Company
Продолжительность: 02:11:42
Перевод: Дублированный (iTunes)

Файл
Качество: BDRip-HEVC 1080p
Видео: HEVC/x.265, 1920x800, ~10.4 Mb/s
Аудио 1: AC3, 6 ch, 384 Kbps Дублированный (iTunes)
Аудио 2: AC3, 6 ch, 640 Kbps (Оригинал)
Субтитры: Русские(Forced, Full), Английские
General
Unique ID : 339565561757224773215225492759186995608 (0xFF75F2C6DFFE22EC1371B57238DF7998)
Complete name : E:[HEVC]Godzilla King of the Monsters (2019) BDRip 1080p [HEVC] 10bit.mkv
Format : Matroska
Format version : Version 4
File size : 10.5 GiB
Duration : 2 h 11 min
Overall bit rate : 11.5 Mb/s
Movie name : Godzilla King of the Monsters 2019 from селезень
Track name/Position : 1/3
Deion : История рассказывает о героических усилиях криптозоологического агентства «Монарх» по борьбе с гигантскими чудовищами. В этот раз против могучего Годзиллы выступают Мотра, Родан и заклятый враг — трёхголовый Кинг Гидора. Когда эти древние суперхищники, со временем превратившиеся в полузабытые мифы, восстают снова, чтобы сойтись в схватке, существование всего человечества находится под угрозой.
Encoded date : UTC 2019-08-21 17:17:12
Writing application : mkvmerge v35.0.0 ('All The Love In The World') 64-bit
Writing library : libebml v1.3.9 + libmatroska v1.5.2 / Lavf57.71.100
Attachments : poster.jpg
ALBUM : ?????????? / ??? - 3-Film Collection
DATE : 2019-05-30
DISC : 1/1
ENCODING_INFO : MPEGTS > MKV / H264 > X265 CRF 19.5 Medium
GENRE : Боевики и приключения
HD_VIDEO : 1
ITUNEXTC : ru-movie|16+|375|
Language : und
MEDIA_TYPE : 9
ORIGINAL_TITLE : Godzilla: King of the Monsters (2019)
SYNOPSIS : История рассказывает о героических усилиях криптозоологического агентства «Монарх» по борьбе с гигантскими чудовищами. В этот раз против могучего Годзиллы выступают Мотра, Родан и заклятый враг — трёхголовый Кинг Гидора. Когда эти древние суперхищники, со временем превратившиеся в полузабытые мифы, восстают снова, чтобы сойтись в схватке, существование всего человечества находится под угрозой.

Video
ID : 1
Format : HEVC
Format/Info : High Efficiency Video Coding
Format profile : Main 10@L4.1@High
Codec ID : V_MPEGH/ISO/HEVC
Duration : 2 h 11 min
Bit rate : 10.4 Mb/s
Width : 1 920 pixels
Height : 800 pixels
Display aspect ratio : 2.40:1
Frame rate mode : Constant
Frame rate : 23.976 (24000/1001) FPS
Color space : YUV
Chroma subsampling : 4:2:0
Bit depth : 10 bits
Bits/(Pixel*Frame) : 0.283
Stream size : 9.60 GiB (91%)
Writing library : x265 3.1+7-147fb92c5ed5:[Windows][clang 8.0.0][64 bit] 10bit
Encoding settings : cpuid=1111039 / frame-threads=13 / wpp / no-pmode / no-pme / no-psnr / no-ssim / log-level=3 / input-csp=1 / input-res=1920x800 / interlace=0 / total-frames=0 / level-idc=41 / high-tier=1 / uhd-bd=0 / ref=5 / allow-non-conformance / no-repeat-headers / annexb / no-aud / no-hrd / info / hash=0 / no-temporal-layers / open-gop / min-keyint=23 / keyint=240 / gop-lookahead=0 / bframes=8 / b-adapt=2 / b-pyramid / bframe-bias=0 / rc-lookahead=60 / lookahead-slices=4 / scenecut=40 / radl=0 / no-splice / no-intra-refresh / ctu=64 / min-cu-size=8 / rect / amp / max-tu-size=32 / tu-inter-depth=4 / tu-intra-depth=4 / limit-tu=0 / rdoq-level=2 / dynamic-rd=0.00 / no-ssim-rd / signhide / no-tskip / nr-intra=0 / nr-inter=0 / no-constrained-intra / no-strong-intra-smoothing / max-merge=5 / limit-refs=2 / limit-modes / me=3 / subme=7 / merange=57 / temporal-mvp / no-hme / weightp / weightb / no-analyze-src-pics / deblock=-3:-3 / no-sao / no-sao-non-deblock / rd=6 / early-skip / no-rskip / no-fast-intra / no-tskip-fast / no-cu-lossless / b-intra / no-splitrd-skip / rdpenalty=0 / psy-rd=2.00 / psy-rdoq=1.00 / no-rd-refine / no-lossless / cbqpoffs=0 / crqpoffs=0 / rc=crf / crf=19.5 / qcomp=0.60 / qpstep=4 / stats-write=0 / stats-read=0 / vbv-maxrate=50000 / vbv-bufsize=50000 / vbv-init=0.9 / crf-max=30.0 / crf-min=0.0 / ipratio=1.40 / pbratio=1.30 / aq-mode=2 / aq-strength=1.00 / no-cutree / zone-count=0 / no-strict-cbr / qg-size=32 / no-rc-grain / qpmax=69 / qpmin=0 / no-const-vbv / sar=1 / overscan=0 / videoformat=5 / range=0 / colorprim=1 / transfer=1 / colormatrix=1 / chromaloc=0 / display-window=0cll=0,0 / min-luma=0 / max-luma=1023 / log2-max-poc-lsb=8 / vui-timing-info / vui-hrd-info / slices=1 / no-opt-qp-pps / no-opt-ref-list-length-pps / no-multi-pass-opt-rps / scenecut-bias=0.05 / no-opt-cu-delta-qp / no-aq-motion / no-hdr / no-hdr-opt / no-dhdr10-opt / no-idr-recovery-sei / analysis-reuse-level=5 / scale-factor=0 / refine-intra=0 / refine-inter=0 / refine-mv=0 / refine-ctu-distortion=0 / no-limit-sao / ctu-info=0 / no-lowpass-dct / refine-analysis-type=259 / copy-pic=1 / max-ausize-factor=1.0 / no-dynamic-refine / no-single-sei / no-hevc-aq / no-svt / no-field / qp-adaptation-range=1.00
Default : Yes
Forced : No
Color range : Limited
Color primaries : BT.709
Transfer characteristics : BT.709
Matrix coefficients : BT.709

Audio #1
ID : 2
Format : AC-3
Format/Info : Audio Coding 3
Commercial name : Dolby Digital
Codec ID : A_AC3
Duration : 2 h 11 min
Bit rate mode : Constant
Bit rate : 384 kb/s
Channel(s) : 6 channels
Channel layout : L R C LFE Ls Rs
Sampling rate : 48.0 kHz
Frame rate : 31.250 FPS (1536 SPF)
Bit depth : 16 bits
Compression mode : Lossy
Stream size : 362 MiB (3%)
Title : Dub [iTunes]
Language : Russian
Service kind : Complete Main
Default : Yes
Forced : Yes

Audio #2
ID : 3
Format : AC-3
Format/Info : Audio Coding 3
Commercial name : Dolby Digital
Codec ID : A_AC3
Duration : 2 h 11 min
Bit rate mode : Constant
Bit rate : 640 kb/s
Channel(s) : 6 channels
Channel layout : L R C LFE Ls Rs
Sampling rate : 48.0 kHz
Frame rate : 31.250 FPS (1536 SPF)
Bit depth : 16 bits
Compression mode : Lossy
Stream size : 603 MiB (6%)
Title : Original
Language : English
Service kind : Complete Main
Default : No
Forced : No

Text #1
ID : 4
Format : UTF-8
Codec ID : S_TEXT/UTF8
Codec ID/Info : UTF-8 Plain Text
Duration : 2 h 8 min
Bit rate : 1 b/s
Count of elements : 24
Stream size : 1.42 KiB (0%)
Title : Forced
Language : Russian
Default : Yes
Forced : Yes

Text #2
ID : 5
Format : UTF-8
Codec ID : S_TEXT/UTF8
Codec ID/Info : UTF-8 Plain Text
Duration : 2 h 10 min
Bit rate : 77 b/s
Count of elements : 1372
Stream size : 74.2 KiB (0%)
Title : Full
Language : Russian
Default : No
Forced : No

Text #3
ID : 6
Format : UTF-8
Codec ID : S_TEXT/UTF8
Codec ID/Info : UTF-8 Plain Text
Duration : 2 h 10 min
Bit rate : 42 b/s
Count of elements : 1482
Stream size : 40.9 KiB (0%)
Title : Full
Language : English
Default : No
Forced : No

Text #4
ID : 7
Format : UTF-8
Codec ID : S_TEXT/UTF8
Codec ID/Info : UTF-8 Plain Text
Duration : 2 h 11 min
Bit rate : 51 b/s
Count of elements : 1857
Stream size : 49.7 KiB (0%)
Title : SDH
Language : English
Default : No
Forced : No

Menu #1
00:00:00.000 : en:00:00:00.000
00:10:53.903 : en:00:10:53.903
00:18:06.836 : en:00:18:06.836
00:30:27.325 : en:00:30:27.325
00:45:18.633 : en:00:45:18.633
00:54:11.039 : en:00:54:11.039
01:05:41.646 : en:01:05:41.646
01:09:31.584 : en:01:09:31.584
01:19:31.308 : en:01:19:31.308
01:30:06.234 : en:01:30:06.234
01:38:36.869 : en:01:38:36.869
01:49:58.884 : en:01:49:58.884
01:59:28.828 : en:01:59:28.828

Menu #2
00:00:00.000 : :Глава 1
00:18:15.093 : :Глава 2
00:36:29.687 : :Глава 3
00:36:29.812 : :Глава 4
00:54:14.376 : :Глава 5
01:13:29.196 : :Глава 6
01:30:59.036 : :Глава 7
01:46:58.328 : :Глава 8
02:02:43.689 : :Глава 9
Релиз от: HANNIBAL
Источник http://BlaTor.org

Трекер:  [ 21-Авг-2019 21:40 ]

  

Скачать .torrent

Размер .torrent файла 27 KB


Размер: 10.55 GB
Хэш (hash) релиза: fde8c85bc8cd3731e369df83af9ab20a612e226a
Подписка на обновления:

Еще никто не оставлял запись к записи скачать торрент Годзилла 2: Король монстров Godzilla: King of the Monsters . Будь первым!

!Обратная связь