Скачать через торрент Невидимки Фильм бесплатно в хорошем качестве torrent

Скачивайте на UnionPeer.org фильмы через торрент без регистрации. Новинки кино в хорошем качестве через торрент. На UnionPeer.org можно скачать через торрент фильмы 2014 и 2015 годов. Самые новые фильмы.

Скачать торрент Невидимки бесплатно через .torrent фильм мультфильм сериал

 
Автор Сообщение

Galfimbul

avatar Galfimbul


Невидимки



[b]Год выхода:
2013
Жанр: комедия, фантастика
Режиссер: Сергей Комаров
В ролях: Илья Любимов, Екатерина Гусева,Гоша Куценко, Андрей Мерзликин, Ирина Розанова, Иван Чуваткин, Вера Борисенкова, Зураб Гурцкая, Владимир Дыховичный, Петр Винс.

О фильме: В канун Нового года удивительное событие навсегда меняет жизнь главного героя: он становится невидимкой! Правда, понимает он это не сразу, так как уже привык к тому, что его никто не замечает и не принимает всерьез. Очень быстро войдя во вкус новой жизни и своих супер способностей, он вдруг обнаруживает, что он такой не один! НИКТО И НИКОГДА ИХ НЕ ВИДЕЛ… Мы не знаем, кто на самом деле забил гол голландцам на чемпионате Европы? Кто махал демонстрантам рукой утомленного Брежнева? Куда исчезли остатки тунгусского метеорита? Кто сказал: «Поехали!». Кто украл у американцев секрет атомной бомбы? В Москве невидимок — видимо невидимо…


Страна: Россия
Продолжительность: 01:29:51
Перевод: Оригинал [iTunes]
Субтитры: нет

Файл
Формат: MKV
Качество: WEB-DLRip-AVC
Видео: MPEG-4 AVC, 824x344, - 1029 Кбит/с - 24.000 fps
Звук: AAC-LC, 2 ch, - 128 Кбит/с
General
Unique ID : 23624342653696619583279367532762550185 (0x11C5E2054BF7639E81AB0F08F9B2CFA9)
Complete name : C:UsersUserDesktopencodedНевидимки 2013Nevidimki.2015.WEB-DLRip-AVC.Portablius.mkv
Format : Matroska
Format version : Version 4
File size : 745 MiB
Duration : 1 h 29 min
Overall bit rate : 1 159 kb/s
Encoded date : UTC 2019-08-31 10:15:49
Writing application : mkvmerge v34.0.0 ('Sight and Seen') 64-bit
Writing library : libebml v1.3.7 + libmatroska v1.5.0

Video
ID : 1
Format : AVC
Format/Info : Advanced Video Codec
Format profile : High@L4.1
Format settings : CABAC / 9 Ref Frames
Format settings, CABAC : Yes
Format settings, Reference : 9 frames
Codec ID : V_MPEG4/ISO/AVC
Duration : 1 h 29 min
Bit rate : 1 029 kb/s
Width : 824 pixels
Height : 344 pixels
Display aspect ratio : 2.40:1
Frame rate mode : Constant
Frame rate : 24.000 FPS
Color space : YUV
Chroma subsampling : 4:2:0
Bit depth : 8 bits
Scan type : Progressive
Bits/(Pixel*Frame) : 0.151
Stream size : 661 MiB (89%)
Writing library : x264 core 152 r2851 ba24899
Encoding settings : cabac=1 / ref=9 / deblock=1:-2:-1 / analyse=0x3:0x133 / me=umh / subme=9 / psy=1 / psy_rd=1.00:0.15 / mixed_ref=1 / me_range=24 / chroma_me=1 / trellis=2 / 8x8dct=1 / cqm=0 / deadzone=21,11 / fast_pskip=0 / chroma_qp_offset=-3 / threads=3 / lookahead_threads=1 / sliced_threads=0 / nr=0 / decimate=1 / interlaced=0 / bluray_compat=0 / constrained_intra=0 / bframes=12 / b_pyramid=2 / b_adapt=2 / b_bias=0 / direct=3 / weightb=1 / open_gop=0 / weightp=2 / keyint=240 / keyint_min=24 / scenecut=40 / intra_refresh=0 / rc=2pass / mbtree=0 / bitrate=1029 / ratetol=1.0 / qcomp=0.60 / qpmin=0 / qpmax=69 / qpstep=4 / cplxblur=20.0 / qblur=0.5 / ip_ratio=1.40 / pb_ratio=1.30 / aq=2:1.00
Default : Yes
Forced : No
Color range : Limited
Color primaries : BT.709
Transfer characteristics : BT.709
Matrix coefficients : BT.709

Audio
ID : 2
Format : AAC LC
Format/Info : Advanced Audio Codec Low Complexity
Codec ID : A_AAC-2
Duration : 1 h 29 min
Bit rate : 128 kb/s
Channel(s) : 2 channels
Channel layout : L R
Sampling rate : 48.0 kHz
Frame rate : 46.875 FPS (1024 SPF)
Compression mode : Lossy
Delay relative to video : 9 ms
Stream size : 82.3 MiB (11%)
Default : Yes
Forced : No

Menu
00:00:00.000 : en:Глава 1
00:06:16.000 : en:Глава 2
00:11:55.000 : en:Глава 3
00:17:14.000 : en:Глава 4
00:22:13.000 : en:Глава 5
00:27:47.000 : en:Глава 6
00:32:48.000 : en:Глава 7
00:39:04.000 : en:Глава 8
00:45:59.000 : en:Глава 9
00:53:02.000 : en:Глава 10
00:59:57.000 : en:Глава 11
01:05:37.000 : en:Глава 12
01:11:00.000 : en:Глава 13
01:17:01.000 : en:Глава 14
01:23:25.000 : en:Глава 15
Источник http://BlaTor.org

Еще никто не оставлял запись к записи скачать торрент Невидимки . Будь первым!

!Обратная связь