Скачать через торрент На берегу мечты Фильм бесплатно в хорошем качестве torrent

Скачивайте на UnionPeer.org фильмы через торрент без регистрации. Новинки кино в хорошем качестве через торрент. На UnionPeer.org можно скачать через торрент фильмы 2014 и 2015 годов. Самые новые фильмы.

Скачать торрент На берегу мечты бесплатно через .torrent фильм мультфильм сериал

 
Автор Сообщение

Galfimbul

avatar Galfimbul


Название: На берегу мечты
Год выхода: 2018
Жанр: Драма
Режиссер: Баир Уладаев
В ролях: Баир Уладаев, Анфиса Манхаева, Дарья Трифонова, Алексей Суворов, Вера Урбаева, Григорий Борголов, Баир Ханхаров, Роман Дархаев, Дарима Урбаева, Сергей Манхаев

О фильме: Фильм отправляет нас в 2000-й год. История рассказывает о вернувшемся раненым из Чечни молодом парне и одинокой, брошенной девочке, в которой герой, возможно, видит свою сестру и пытается помочь ей реализовать ее мечту. Это фильм о чистоте человеческого сердца, способного к добрым и самоотверженным поступкам.


Страна: Россия
Студия: Киностудия «Уладай Баяр», Русская Фильм Группа
Продолжительность: 01:33:01
Перевод: Не требуется | iTunes

Файл
Качество: WEB-DLRip-AVC
Контейнер: MKV
Видео: MPEG-4 AVC, 1152x484, 1852 Kbps, 25.000 fps
Аудио: Russian: AC3, 48.0 KHz, 6 ch, 384 kbps - iTunes
Субтитры: Русские (hardsub - на бурятскую речь)
General
Unique ID : 221408601333674507469110568686852267303 (0xA691BEDABFB1FAB2B244FC3002305D27)
Complete name : На берегу мечты.2018.mkv
Format : Matroska
Format version : Version 2
File size : 1.45 GiB
Duration : 1 h 33 min
Overall bit rate : 2 237 kb/s
Encoded date : UTC 2019-06-13 17:46:50
Writing application : mkvmerge v7.8.0 ('River Man') 32bit built on Mar 27 2015 16:18:02
Writing library : libebml v1.3.1 + libmatroska v1.4.2

Video
ID : 1
Format : AVC
Format/Info : Advanced Video Codec
Format profile : High@L4.1
Format settings : CABAC / 14 Ref Frames
Format settings, CABAC : Yes
Format settings, ReFrames : 14 frames
Codec ID : V_MPEG4/ISO/AVC
Duration : 1 h 33 min
Bit rate : 1 852 kb/s
Width : 1 152 pixels
Height : 484 pixels
Display aspect ratio : 2.40:1
Frame rate mode : Constant
Frame rate : 25.000 FPS
Color space : YUV
Chroma subsampling : 4:2:0
Bit depth : 8 bits
Scan type : Progressive
Bits/(Pixel*Frame) : 0.133
Stream size : 1.18 GiB (81%)
Title : На берегу мечты.2018
Writing library : x264 core 152 r2851kMod ba24899
Encoding settings : cabac=1 / ref=14 / deblock=1:-3:-1 / analyse=0x3:0x133 / me=umh / subme=10 / psy=1 / fade_compensate=0.00 / psy_rd=1.00:0.00 / mixed_ref=1 / me_range=32 / chroma_me=1 / trellis=2 / 8x8dct=1 / cqm=0 / deadzone=21,11 / fast_pskip=0 / chroma_qp_offset=-2 / threads=12 / lookahead_threads=3 / sliced_threads=0 / nr=0 / decimate=0 / interlaced=0 / bluray_compat=0 / constrained_intra=0 / bframes=11 / b_pyramid=2 / b_adapt=2 / b_bias=0 / direct=3 / weightb=1 / open_gop=0 / weightp=2 / keyint=250 / keyint_min=25 / scenecut=40 / intra_refresh=0 / rc_lookahead=120 / rc=2pass / mbtree=0 / bitrate=1852 / ratetol=1.0 / qcomp=0.60 / qpmin=0 / qpmax=69 / qpstep=4 / cplxblur=20.0 / qblur=0.5 / vbv_maxrate=12500 / vbv_bufsize=14000 / nal_hrd=none / filler=0 / ip_ratio=1.30 / pb_ratio=1.25 / aq=3:0.80
Language : Russian
Default : Yes
Forced : No
Color range : Limited
Color primaries : BT.709
Transfer characteristics : BT.709
Matrix coefficients : BT.709

Audio
ID : 2
Format : AC-3
Format/Info : Audio Coding 3
Codec ID : A_AC3
Duration : 1 h 33 min
Bit rate mode : Constant
Bit rate : 384 kb/s
Channel(s) : 6 channels
Channel positions : Front: L C R, Side: L R, LFE
Sampling rate : 48.0 kHz
Frame rate : 31.250 FPS (1536 SPF)
Bit depth : 16 bits
Compression mode : Lossy
Stream size : 255 MiB (17%)
Language : Russian
Service kind : Complete Main
Default : Yes
Forced : No
Источник http://BlaTor.org

Еще никто не оставлял запись к записи скачать торрент На берегу мечты . Будь первым!

!Обратная связь