Скачать через торрент Это не навсегда Фильм бесплатно в хорошем качестве torrent

Скачивайте на UnionPeer.org фильмы через торрент без регистрации. Новинки кино в хорошем качестве через торрент. На UnionPeer.org можно скачать через торрент фильмы 2014 и 2015 годов. Самые новые фильмы.

Скачать торрент Это не навсегда бесплатно через .torrent фильм мультфильм сериал

 
Автор Сообщение

Galfimbul

avatar Galfimbul


Это не навсегда



[b]Год выхода:
2019
Жанр: Драма
Режиссер: Евгения Яцкина, Алена Рубинштейн
В ролях: Агриппина Стеклова, Ольга Лапшина, Яна Есипович, Александр Мохов, Марта Дроздова, Михаил Сазанов, Макар Пусторамов, Саша Агашков, Даниил Коновалов, Тимур Шошин

О фильме: В центре сюжета — истории четырёх воспитанников детского дома. Петя, Ваня, Настенька и Миша мечтают об одном: найти свою семью. Несмотря на то, что их судьбы тесно переплетены между собой, у каждого из них свой путь. Герои проживают вместе нелегкие будни, однако надеются и верят, что это не навсегда.


Страна: Россия
Продолжительность: 01:32:56
Перевод: Русский | iTunes
Субтитры: нет

Файл
Формат: MKV
Качество: WEB-DLRip-AVC
Видео: MPEG-4 AVC, 780x326, - 991 Кбит/с - 25.000 fps
Звук: AAC-LC, 2 ch, - 128 Кбит/с
General
Unique ID : 86145380677557704144289224679678081010 (0x40CEFF2FB5E3EF9AD6DC575C89BCF7F2)
Complete name : C:UsersUserDesktopencodedЭто не навсегдаEto.Ne.Navsegda.2019.WEB-DLRip-AVC.Portablius.mkv
Format : Matroska
Format version : Version 4
File size : 745 MiB
Duration : 1 h 32 min
Overall bit rate : 1 121 kb/s
Encoded date : UTC 2019-09-01 13:26:26
Writing application : mkvmerge v34.0.0 ('Sight and Seen') 64-bit
Writing library : libebml v1.3.7 + libmatroska v1.5.0

Video
ID : 1
Format : AVC
Format/Info : Advanced Video Codec
Format profile : High@L4.1
Format settings : CABAC / 9 Ref Frames
Format settings, CABAC : Yes
Format settings, Reference : 9 frames
Codec ID : V_MPEG4/ISO/AVC
Duration : 1 h 32 min
Bit rate : 991 kb/s
Width : 780 pixels
Height : 326 pixels
Display aspect ratio : 2.40:1
Frame rate mode : Constant
Frame rate : 25.000 FPS
Color space : YUV
Chroma subsampling : 4:2:0
Bit depth : 8 bits
Scan type : Progressive
Bits/(Pixel*Frame) : 0.156
Stream size : 658 MiB (88%)
Writing library : x264 core 152 r2851 ba24899
Encoding settings : cabac=1 / ref=9 / deblock=1:-2:-1 / analyse=0x3:0x133 / me=umh / subme=9 / psy=1 / psy_rd=1.00:0.15 / mixed_ref=1 / me_range=24 / chroma_me=1 / trellis=2 / 8x8dct=1 / cqm=0 / deadzone=21,11 / fast_pskip=0 / chroma_qp_offset=-3 / threads=3 / lookahead_threads=1 / sliced_threads=0 / nr=0 / decimate=1 / interlaced=0 / bluray_compat=0 / constrained_intra=0 / bframes=12 / b_pyramid=2 / b_adapt=2 / b_bias=0 / direct=3 / weightb=1 / open_gop=0 / weightp=2 / keyint=250 / keyint_min=25 / scenecut=40 / intra_refresh=0 / rc=2pass / mbtree=0 / bitrate=991 / ratetol=1.0 / qcomp=0.60 / qpmin=0 / qpmax=69 / qpstep=4 / cplxblur=20.0 / qblur=0.5 / ip_ratio=1.40 / pb_ratio=1.30 / aq=2:1.00
Default : Yes
Forced : No
Color range : Limited
Color primaries : BT.709
Transfer characteristics : BT.709
Matrix coefficients : BT.709

Audio
ID : 2
Format : AAC LC
Format/Info : Advanced Audio Codec Low Complexity
Codec ID : A_AAC-2
Duration : 1 h 32 min
Bit rate : 128 kb/s
Channel(s) : 2 channels
Channel layout : L R
Sampling rate : 48.0 kHz
Frame rate : 46.875 FPS (1024 SPF)
Compression mode : Lossy
Delay relative to video : 9 ms
Stream size : 85.1 MiB (11%)
Default : Yes
Forced : No

Menu
00:00:00.000 : en:Глава 1
00:08:26.800 : en:Глава 2
00:16:46.480 : en:Глава 3
00:25:23.880 : en:Глава 4
00:33:39.040 : en:Глава 5
00:41:58.640 : en:Глава 6
00:50:50.640 : en:Глава 7
01:00:01.680 : en:Глава 8
01:08:06.640 : en:Глава 9
01:15:49.520 : en:Глава 10
01:24:28.880 : en:Глава 11
Источник http://BlaTor.org

Еще никто не оставлял запись к записи скачать торрент Это не навсегда . Будь первым!

!Обратная связь