Скачать через торрент Люди Икс: Тёмный Феникс Dark Phoenix Фильм бесплатно в хорошем качестве torrent

Скачивайте на UnionPeer.org фильмы через торрент без регистрации. Новинки кино в хорошем качестве через торрент. На UnionPeer.org можно скачать через торрент фильмы 2014 и 2015 годов. Самые новые фильмы.

Скачать торрент Люди Икс: Тёмный Феникс Dark Phoenix бесплатно через .torrent фильм мультфильм сериал

Статистика раздачи
Размер:  24.96 GB   |    Зарегистрирован:  17 дней   |    .torrent скачан:  480 раз   |   
Раздают:  9   Качают:  4  
   
загрузка...
 
Автор Сообщение

Galfimbul

avatar Galfimbul




Люди Икс: Тёмный Феникс /Dark Phoenix

Год выхода: 2019
Жанр: Фантастика
, боевик, приключения
Режиссер: Саймон Кинберг
В ролях: Джеймс МакЭвой, Майкл Фассбендер, Дженнифер Лоуренс, Николас Холт, Софи Тёрнер, Тай Шеридан, Александра Шипп, Эван Питерс, Коди Смит-МакФи, Джессика Честейн

О фильме:
История Джин Грей, которая разворачивается в тот момент, когда героиня превращается в культового Тёмного Феникса. Во время опасной для жизни спасательной миссии в космосе девушка оказывается поражена таинственной космической силой, которая превращает её в одного из самых могущественных мутантов. В борьбе с этой всё более изменчивой мощью и со своими собственными демонами Джин выходит из-под контроля: раскалывает семью Людей Икс и угрожает уничтожить всю нашу планету.



Страна: США
Студия: 20th Century Fox Film Corporation, Bad Hat Harry Productions, Donners' Company, Kinberg Genre, Marvel Entertainment, TSG Entertainment
Продолжительность: 01:53:56
Перевод: Дублированный | Лицензия

Файл
Кодек: h.264
Качество: BDRemux 1080р | Лицензия
Видео: MPEG-4 AVC, 31.0 Mбит/с, 1920x1080, 23.976 кадр/с
Аудио #1: Русский (АС3, 6 ch, 448 Кбит/с, 48.0 KHz) Профессиональный (дублированный)
Аудио #2: Русский (DTS, 6 ch, 768 Кбит/с, 48.0 KHz) Профессиональный (дублированный)
Аудио #3: Украинский (АС3, 6 ch, 448 Кбит/с, 48.0 KHz) Профессиональный (дублированный)
Аудио #4: Английский (DTS-HD MA, 8 ch, 5074 Кбит/с, 48.0 KHz)
Субтитры: Русские (форсированные, полные), украинские, английские
Трейлер
General
Unique ID : 242681760543472824787227646162311685371 (0xB692CE94D8E50898B1A573A39A7DA4FB)
Complete name : Dark.Phoenix.2019.D.1080p.BDRemux.mkv
Format : Matroska
Format version : Version 2
File size : 25.0 GiB
Duration : 1 h 53 min
Overall bit rate mode : Variable
Overall bit rate : 31.4 Mb/s
Encoded date : UTC 2019-09-01 18:03:13
Writing application : mkvmerge v7.8.0 ('River Man') 32bit built on Apr 3 2015 12:11:22
Writing library : libebml v1.3.1 + libmatroska v1.4.2

Video
ID : 1
Format : AVC
Format/Info : Advanced Video Codec
Format profile : High@L4.1
Format settings : CABAC / 4 Ref Frames
Format settings, CABAC : Yes
Format settings, Reference fra : 4 frames
Codec ID : V_MPEG4/ISO/AVC
Duration : 1 h 53 min
Bit rate mode : Variable
Maximum bit rate : 31.0 Mb/s
Width : 1 920 pixels
Height : 1 080 pixels
Display aspect ratio : 16:9
Frame rate mode : Constant
Frame rate : 23.976 (24000/1001) FPS
Color space : YUV
Chroma subsampling : 4:2:0
Bit depth : 8 bits
Scan type : Progressive
Language : English
Default : Yes
Forced : No

Audio #1
ID : 2
Format : AC-3
Format/Info : Audio Coding 3
Commercial name : Dolby Digital
Codec ID : A_AC3
Duration : 1 h 53 min
Bit rate mode : Constant
Bit rate : 448 kb/s
Channel(s) : 6 channels
Channel layout : L R C LFE Ls Rs
Sampling rate : 48.0 kHz
Frame rate : 31.250 FPS (1536 SPF)
Bit depth : 16 bits
Compression mode : Lossy
Stream size : 365 MiB (1%)
Title : AC3-Liс
Language : Russian
Service kind : Complete Main
Default : Yes
Forced : No

Audio #2
ID : 3
Format : DTS
Format/Info : Digital Theater Systems
Codec ID : A_DTS
Duration : 1 h 53 min
Bit rate mode : Constant
Bit rate : 768 kb/s
Channel(s) : 6 channels
Channel layout : C L R Ls Rs LFE
Sampling rate : 48.0 kHz
Frame rate : 93.750 FPS (512 SPF)
Bit depth : 24 bits
Compression mode : Lossy
Stream size : 626 MiB (2%)
Title : DTS-Liс
Language : Russian
Default : No
Forced : No

Audio #3
ID : 4
Format : AC-3
Format/Info : Audio Coding 3
Commercial name : Dolby Digital
Codec ID : A_AC3
Duration : 1 h 53 min
Bit rate mode : Constant
Bit rate : 448 kb/s
Channel(s) : 6 channels
Channel layout : L R C LFE Ls Rs
Sampling rate : 48.0 kHz
Frame rate : 31.250 FPS (1536 SPF)
Bit depth : 16 bits
Compression mode : Lossy
Stream size : 365 MiB (1%)
Title : AC3-Ukra
Language : Ukrainian
Service kind : Complete Main
Default : No
Forced : No

Audio #4
ID : 5
Format : DTS XLL
Format/Info : Digital Theater Systems
Commercial name : DTS-HD Master Audio
Codec ID : A_DTS
Duration : 1 h 53 min
Bit rate mode : Variable
Channel(s) : 8 channels
Channel layout : C L R LFE Lb Rb Lss Rss
Sampling rate : 48.0 kHz
Frame rate : 93.750 FPS (512 SPF)
Bit depth : 24 bits
Compression mode : Lossless
Title : Original
Language : English
Default : No
Forced : No

Text #1
ID : 6
Format : UTF-8
Codec ID : S_TEXT/UTF8
Codec ID/Info : UTF-8 Plain Text
Title : Forced
Language : Russian
Default : Yes
Forced : Yes

Text #2
ID : 7
Format : UTF-8
Codec ID : S_TEXT/UTF8
Codec ID/Info : UTF-8 Plain Text
Title : Full
Language : Russian
Default : No
Forced : No

Text #3
ID : 8
Format : PGS
Muxing mode : zlib
Codec ID : S_HDMV/PGS
Codec ID/Info : Picture based subtitle format used on BDs/HD-DVDs
Title : Forced
Language : Ukrainian
Default : No
Forced : No

Text #4
ID : 9
Format : PGS
Muxing mode : zlib
Codec ID : S_HDMV/PGS
Codec ID/Info : Picture based subtitle format used on BDs/HD-DVDs
Title : Full
Language : Ukrainian
Default : No
Forced : No

Text #5
ID : 10
Format : PGS
Muxing mode : zlib
Codec ID : S_HDMV/PGS
Codec ID/Info : Picture based subtitle format used on BDs/HD-DVDs
Title : Forced
Language : English
Default : No
Forced : No

Text #6
ID : 11
Format : PGS
Muxing mode : zlib
Codec ID : S_HDMV/PGS
Codec ID/Info : Picture based subtitle format used on BDs/HD-DVDs
Title : Full
Language : English
Default : No
Forced : No

Text #7
ID : 12
Format : PGS
Muxing mode : zlib
Codec ID : S_HDMV/PGS
Codec ID/Info : Picture based subtitle format used on BDs/HD-DVDs
Title : SDH
Language : English
Default : No
Forced : No

Menu
00:00:00.000 : en:Chapter 01
00:03:28.875 : en:Chapter 02
00:07:34.621 : en:Chapter 03
00:11:42.201 : en:Chapter 04
00:15:44.110 : en:Chapter 05
00:18:37.408 : en:Chapter 06
00:25:24.481 : en:Chapter 07
00:31:40.357 : en:Chapter 08
00:34:19.307 : en:Chapter 09
00:40:07.447 : en:Chapter 10
00:44:36.090 : en:Chapter 11
00:49:07.778 : en:Chapter 12
00:55:38.168 : en:Chapter 13
00:58:57.409 : en:Chapter 14
01:02:57.190 : en:Chapter 15
01:10:40.111 : en:Chapter 16
01:13:42.418 : en:Chapter 17
01:19:33.477 : en:Chapter 18
01:22:35.701 : en:Chapter 19
01:25:49.061 : en:Chapter 20
01:30:38.350 : en:Chapter 21
01:32:48.188 : en:Chapter 22
01:37:59.624 : en:Chapter 23
01:45:01.045 : en:Chapter 24
Источник http://BlaTor.org

Трекер:  [ 01-Сен-2019 23:10 ]

  

Скачать .torrent

Размер .torrent файла 125 KB


Размер: 24.96 GB
Хэш (hash) релиза: 42c8bbca816c17f8a545c10f7a67da258e076868
Подписка на обновления:

Торренты, похожие на Люди Икс: Тёмный Феникс Dark Phoenix скачать торрент

Форум Название Автор Размер S L Добавлен
Зарубежные фильмы 2016-2018 (Новинки зарубежного кино) ·%· Люди Икс: Тёмный Феникс / Dark Phoenix (2019) HDRip 1080p | Трейлер Galfimbul 869735299829 MB 2 0 1544880609

16:30

15-Дек-18

Еще никто не оставлял запись к записи скачать торрент Люди Икс: Тёмный Феникс Dark Phoenix . Будь первым!

!Обратная связь