Скачать через торрент Отпетые мошенницы The Hustle Фильм бесплатно в хорошем качестве torrent

Скачивайте на UnionPeer.org фильмы через торрент без регистрации. Новинки кино в хорошем качестве через торрент. На UnionPeer.org можно скачать через торрент фильмы 2014 и 2015 годов. Самые новые фильмы.

Скачать торрент Отпетые мошенницы The Hustle бесплатно через .torrent фильм мультфильм сериал

Статистика раздачи
Размер:  24.47 GB   |    Зарегистрирован:  16 дней   |    .torrent скачан:  107 раз   |   
Раздают:  2   Качают:  1  
   
загрузка...
 
Автор Сообщение

Galfimbul

avatar Galfimbul




Отпетые мошенницы /The Hustle

Год выхода: 2019
Жанр: Комедия
, криминал
Режиссер: Крис Эддисон
В ролях: Энн Хэтэуэй, Ребел Уилсон, Алекс Шарп, Ингрид Оливер, Эмма Дейвис, Дин Норрис, Тимоти С. Саймонс, Дуги МакМикин, Эшли МакГуайр, Каспер Кристенсен, Элуиз Ловелл Андерсон, Филип Десмюль, Жарро Антуан, Николас Вудесон, Селин Абрахамс, Раффаэлло Дегруттола, Гай Уоррен-Томас, Мина Райанн

О фильме:
Как стать успешной мошенницей? Всегда будь во всеоружии: высокие каблуки, яркая помада и главное — утягивающее белье. Будь готова расплакаться в любой момент. Ни один мужчина не устоит перед женскими слезами. Бери все, что «плохо лежит» и хорошо блестит. За каждым миллионом может скрываться миллиард. Не откажи себе в удовольствии проверить.



Страна: США
Студия: Metro-Goldwyn-Mayer (MGM), Camp Sugar, Cave 76
Продолжительность: 01:33:57
Перевод: Дублированный | iTunes

Файл
Кодек: h.264
Качество: BDRemux 1080p
Видео: MPEG-4 AVC, 32.2 Mбит/с, 1920x1080, 23.976 кадр/с
Звук: ? Без Рекламы!
Аудио #1: Русский (АС3, 6 ch, 384 Кбит/с, 48.0 KHz) Профессиональный (дублированный) iTunes
Аудио #2: Английский (DTS-HD MA, 8 ch, 4644 Кбит/с, 48.0 KHz)
Субтитры: Русские (форс., полные), Английские (Full)
Источник: The.Hustle.2019.1080p.BluRay.REMUX.AVC.DTS-HD.MA.7.1-FGT
General
Unique ID : 218918571843680988360019937915315986307 (0xA4B22EEC119A097C96199C749E189F83)
Complete name : The.Hustle.2019.BluRay.REMUX.1080p.mkv
Format : Matroska
Format version : Version 4
File size : 24.5 GiB
Duration : 1 h 33 min
Overall bit rate mode : Variable
Overall bit rate : 37.3 Mb/s
Movie name : The.Hustle.2019.1080p.BluRay.REMUX.AVC.DTS-HD.MA.7.1-FGT
Encoded date : UTC 2019-09-03 09:31:34
Writing application : mkvmerge v7.1.0 ('Good Love') 64bit built on Jul 27 2014 13:06:55
Writing library : libebml v1.3.0 + libmatroska v1.4.1

Video
ID : 1
Format : AVC
Format/Info : Advanced Video Codec
Format profile : High@L4.1
Format settings : CABAC / 4 Ref Frames
Format settings, CABAC : Yes
Format settings, Reference fra : 4 frames
Codec ID : V_MPEG4/ISO/AVC
Duration : 1 h 33 min
Bit rate mode : Variable
Bit rate : 32.2 Mb/s
Maximum bit rate : 35.9 Mb/s
Width : 1 920 pixels
Height : 1 080 pixels
Display aspect ratio : 16:9
Frame rate mode : Constant
Frame rate : 23.976 (24000/1001) FPS
Color space : YUV
Chroma subsampling : 4:2:0
Bit depth : 8 bits
Scan type : Progressive
Bits/(Pixel*Frame) : 0.648
Stream size : 21.2 GiB (86%)
Language : English
Default : Yes
Forced : No

Audio #1
ID : 2
Format : AC-3
Format/Info : Audio Coding 3
Commercial name : Dolby Digital
Codec ID : A_AC3
Duration : 1 h 33 min
Bit rate mode : Constant
Bit rate : 384 kb/s
Channel(s) : 6 channels
Channel layout : L R C LFE Ls Rs
Sampling rate : 48.0 kHz
Frame rate : 31.250 FPS (1536 SPF)
Bit depth : 16 bits
Compression mode : Lossy
Stream size : 258 MiB (1%)
Title : DUB | [iTunes]
Language : Russian
Service kind : Complete Main
Default : Yes
Forced : No

Audio #2
ID : 3
Format : DTS XLL
Format/Info : Digital Theater Systems
Commercial name : DTS-HD Master Audio
Codec ID : A_DTS
Duration : 1 h 33 min
Bit rate mode : Variable
Bit rate : 4 644 kb/s
Channel(s) : 6 channels
Channel(s)_Original : 8 channels
ChannelLayout_Original : C L R LFE Lsr Rsr Lss Rss
Sampling rate : 48.0 kHz
Frame rate : 93.750 FPS (512 SPF)
Bit depth : 24 bits
Compression mode : Lossless
Stream size : 3.05 GiB (12%)
Language : English
Default : No
Forced : No

Text #1
ID : 4
Format : UTF-8
Codec ID : S_TEXT/UTF8
Codec ID/Info : UTF-8 Plain Text
Duration : 1 h 27 min
Bit rate : 1 b/s
Count of elements : 31
Stream size : 1.09 KiB (0%)
Title : Forced
Language : Russian
Default : Yes
Forced : No

Text #2
ID : 5
Format : UTF-8
Codec ID : S_TEXT/UTF8
Codec ID/Info : UTF-8 Plain Text
Duration : 1 h 32 min
Bit rate : 109 b/s
Count of elements : 1619
Stream size : 74.1 KiB (0%)
Title : Full
Language : Russian
Default : No
Forced : No

Text #3
ID : 6
Format : UTF-8
Codec ID : S_TEXT/UTF8
Codec ID/Info : UTF-8 Plain Text
Duration : 1 h 32 min
Bit rate : 72 b/s
Count of elements : 1781
Stream size : 49.4 KiB (0%)
Title : English-SRT
Language : English
Default : No
Forced : No

Text #4
ID : 7
Format : PGS
Muxing mode : zlib
Codec ID : S_HDMV/PGS
Codec ID/Info : Picture based subtitle format used on BDs/HD-DVDs
Duration : 1 h 33 min
Bit rate : 15.6 kb/s
Count of elements : 3512
Stream size : 10.4 MiB (0%)
Title : English-PGS
Language : English
Default : No
Forced : No

Menu
00:00:00.000 : en:Chapter 01
00:05:58.858 : en:Chapter 02
00:09:56.053 : en:Chapter 03
00:15:29.553 : en:Chapter 04
00:21:12.646 : en:Chapter 05
00:25:19.851 : en:Chapter 06
00:32:26.903 : en:Chapter 07
00:37:56.607 : en:Chapter 08
00:41:51.300 : en:Chapter 09
00:44:55.818 : en:Chapter 10
00:49:56.326 : en:Chapter 11
00:54:34.896 : en:Chapter 12
00:59:16.261 : en:Chapter 13
01:02:15.898 : en:Chapter 14
01:06:47.586 : en:Chapter 15
01:09:58.152 : en:Chapter 16
01:15:16.178 : en:Chapter 17
01:21:37.058 : en:Chapter 18
01:28:58.833 : en:Chapter 19
01:32:27.041 : en:Chapter 20
Источник http://BlaTor.org

Трекер:  [ 03-Сен-2019 13:30 ]

  

Скачать .torrent

Размер .torrent файла 61 KB


Размер: 24.47 GB
Хэш (hash) релиза: 90a8f42177a1e7f3f3b7397a395b6495e176ed62
Подписка на обновления:

Торренты, похожие на Отпетые мошенницы The Hustle скачать торрент

Форум Название Автор Размер S L Добавлен
Зарубежные фильмы 2016-2018 (Новинки зарубежного кино) ·%· Отпетые мошенницы / The Hustle (2019) BDRip от Twister & ExKinoRay | iTunes Galfimbul 15255858561.42 GB 7 0 1567534211

21:10

3-Сен-19

Еще никто не оставлял запись к записи скачать торрент Отпетые мошенницы The Hustle . Будь первым!

!Обратная связь