Скачать через торрент Русская невеста The Russian Bride Фильм бесплатно в хорошем качестве torrent

Скачивайте на UnionPeer.org фильмы через торрент без регистрации. Новинки кино в хорошем качестве через торрент. На UnionPeer.org можно скачать через торрент фильмы 2014 и 2015 годов. Самые новые фильмы.

Скачать торрент Русская невеста The Russian Bride бесплатно через .torrent фильм мультфильм сериал

Статистика раздачи
Размер:  7.23 GB   |    Зарегистрирован:  10 дней   |    .torrent скачан:  85 раз   |   
Раздают:  2  
   
загрузка...
 
Автор Сообщение

Galfimbul

avatar Galfimbul


Русская невеста /The Russian Bride

Год выхода: 2019
Жанр: Ужасы, триллер
Режиссер: Майкл С. Ойеда
В ролях: Корбин Бернсен, Оксана Орлан, Кристина Пименова, Лиза Гудман, Майкл Роберт Брэндон, Элисон Корман, Кинэн Джонстон, Грегори О'Галлахер, Ефим Сомен, Кеннет Г. Боден



О фильме: Простая русская женщина знакомится в интернете с американским миллионером-затворником, затем выходит за него замуж и переезжает в США. Вот только на новом месте семейная идиллия длится недолго: супруг вскоре начинает себя очень странно вести, а в результате и вовсе оказывается психопатом.

Страна: США
Студия: Reigning Entertainment, Millman Productions, Edge West Productions
Продолжительность: 01:41:24
Перевод: Профессиональный многоголосый | iTunes

Качество: WEB-DL 1080p
Видео: MPEG-4 AVC, 1920x872, 9183 Kbit/s, 23.976 fps
Звук:
Аудио #01: 48 kHz, AC3, 5.1, 384 Kbps | iTunes | RUS |
Аудио #02: 48 kHz, E-AC3, 5.1, 640 Kbps | Оригинал | ENG |
Субтитры: Английские

General
Unique ID : 75431876203491409614623557972416624250 (0x38BFA6A24F7C2D047D9ADFD8FD39767A)
Complete name : D:Video111The.Russian.Bride.2019.AMZN.WEB-DL.1080p.seleZen.mkv
Format : Matroska
Format version : Version 4
File size : 7.23 GiB
Duration : 1 h 41 min
Overall bit rate : 10.2 Mb/s
Movie name : The Russian Bride 2019 from селезень
Encoded date : UTC 2019-09-08 19:56:18
Writing application : mkvmerge v22.0.0 ('At The End Of The World') 64-bit
Writing library : libebml v1.3.5 + libmatroska v1.4.8

Video
ID : 1
Format : AVC
Format/Info : Advanced Video Codec
Format profile : High@L4
Format settings : CABAC / 4 Ref Frames
Format settings, CABAC : Yes
Format settings, Reference : 4 frames
Codec ID : V_MPEG4/ISO/AVC
Duration : 1 h 41 min
Bit rate mode : Constant
Bit rate : 9 183 kb/s
Nominal bit rate : 10 000 kb/s
Width : 1 920 pixels
Height : 872 pixels
Display aspect ratio : 2.2:1
Original display aspect rat : 2.2:1
Frame rate mode : Constant
Frame rate : 23.976 (24000/1001) FPS
Color space : YUV
Chroma subsampling : 4:2:0
Bit depth : 8 bits
Scan type : Progressive
Bits/(Pixel*Frame) : 0.229
Stream size : 6.50 GiB (90%)
Language : English
Default : Yes
Forced : No
Color range : Limited
Color primaries : BT.709
Transfer characteristics : BT.709
Matrix coefficients : BT.709

Audio #1
ID : 2
Format : AC-3
Format/Info : Audio Coding 3
Commercial name : Dolby Digital
Codec ID : A_AC3
Duration : 1 h 41 min
Bit rate mode : Constant
Bit rate : 384 kb/s
Channel(s) : 6 channels
Channel layout : L R C LFE Ls Rs
Sampling rate : 48.0 kHz
Frame rate : 31.250 FPS (1536 SPF)
Bit depth : 16 bits
Compression mode : Lossy
Stream size : 279 MiB (4%)
Title : iTunes
Language : Russian
Service kind : Complete Main
Default : Yes
Forced : Yes

Audio #2
ID : 3
Format : E-AC-3
Format/Info : Enhanced AC-3
Commercial name : Dolby Digital Plus
Codec ID : A_EAC3
Duration : 1 h 41 min
Bit rate mode : Constant
Bit rate : 640 kb/s
Channel(s) : 6 channels
Channel layout : L R C LFE Ls Rs
Sampling rate : 48.0 kHz
Frame rate : 31.250 FPS (1536 SPF)
Compression mode : Lossy
Stream size : 464 MiB (6%)
Title : Original
Language : English
Service kind : Complete Main
Default : No
Forced : No

Text
ID : 4
Format : UTF-8
Codec ID : S_TEXT/UTF8
Codec ID/Info : UTF-8 Plain Text
Duration : 1 h 37 min
Bit rate : 45 b/s
Count of elements : 1440
Stream size : 32.1 KiB (0%)
Title : SDH
Language : English
Default : No
Forced : No
Источник http://BlaTor.org

Трекер:  [ 08-Сен-2019 23:00 ]

  

Скачать .torrent

Размер .torrent файла 9 KB


Размер: 7.23 GB
Хэш (hash) релиза: bf265e0a62ffa87357f3c85b4857781349cd62
Подписка на обновления:

Торренты, похожие на Русская невеста The Russian Bride скачать торрент

Форум Название Автор Размер S L Добавлен
Зарубежные фильмы 2016-2018 (Новинки зарубежного кино) ·%· Русская невеста / The Russian Bride (2019) WEB-DLRip | HDrezka Studio Galfimbul 15689584641.46 GB 0 0 1555054232

10:30

12-Апр-19

Зарубежные фильмы 2016-2018 (Новинки зарубежного кино) ·%· Русская невеста / The Russian Bride (2019) WEB-DLRip | HDRezka Studio Galfimbul 15689584641.46 GB 0 0 1555052424

10:00

12-Апр-19

Зарубежные фильмы 2016-2018 (Новинки зарубежного кино) ·%· Русская невеста / The Russian Bride (2019) WEB-DLRip-AVC от OlLanDGroup | HDRezka Studio Galfimbul 15646104911.46 GB 0 0 1555040409

06:40

12-Апр-19

Зарубежные фильмы 2016-2018 (Новинки зарубежного кино) ·%· Русская невеста / The Russian Bride (2019) WEB-DL 1080p от OlLanDGroup | HDRezka Studio Galfimbul 76176208007.09 GB 0 0 1555012945

23:02

11-Апр-19

Зарубежные фильмы 2016-2018 (Новинки зарубежного кино) ·%· Русская невеста / The Russian Bride (2019) WEB-DLRip от Portablius | L1 Galfimbul 14707875841.37 GB 0 0 1554361824

10:10

4-Апр-19

Зарубежные фильмы 2016-2018 (Новинки зарубежного кино) ·%· Русская невеста / The Russian Bride (2019) HDRip-AVC | L1 Galfimbul 12784976611.19 GB 0 0 1553602828

15:20

26-Мар-19

Еще никто не оставлял запись к записи скачать торрент Русская невеста The Russian Bride . Будь первым!

!Обратная связь