Скачать через торрент Аксиома The Axiom Фильм бесплатно в хорошем качестве torrent

Скачивайте на UnionPeer.org фильмы через торрент без регистрации. Новинки кино в хорошем качестве через торрент. На UnionPeer.org можно скачать через торрент фильмы 2014 и 2015 годов. Самые новые фильмы.

Скачать торрент Аксиома The Axiom бесплатно через .torrent фильм мультфильм сериал

Статистика раздачи
Размер:  1.66 GB   |    Зарегистрирован:  9 дней   |    .torrent скачан:  111 раз   |   
Раздают:  1  
   
загрузка...
 
Автор Сообщение

Galfimbul

avatar Galfimbul


Аксиома / The Axiom
«There are monsters in the forest. Don't tell»


Год выпуска: 2018
Страна: США
Производство: Axiom Movie Production Company
Жанр: Ужасы
Режиссёр: Николас Вудс
В ролях: Хэтти Смит, Зак Титус, Николь Дамбро, Майкл Харрисон, Тейлор Флауэрс, Уильям Кирчер, Аарон Берджон, Дежан Браун, Брэндон Буртис, Чейз Каргилл
Перевод: Профессиональный многоголосый | [HDRezka Studio]
Субтитры: Английские (полные)
Реклама: Отсутствует

Описание: Маккензи Коди вместе с друзьями отправляется в национальный парк Синдер, чтобы разыскать без вести пропавшую сестру Мэрилин. Не желая самостоятельно заходить в лес, где часто пропадают люди, друзья принимают помощь со стороны местного жителя Леона. Продвигаясь вглубь парка вместе с проводником, Маккензи и компания начинают испытывать галлюцинации, а также слышать «голоса». Спустя некоторое время ситуация выходит из-под контроля, когда главные герои находят невидимый портал, который переносит их в параллельное измерение, где находится мир загадочных монстров...


Качество: BDRip-AVC | BluRay Disc | The Axiom 2018 MULTi COMPLETE BLURAY-iTWASNTME
Продолжительность: 01:38:43

Формат: MKV
Видео кодек: MPEG-4 AVC
Аудио кодек: AC3
Видео: 1024x426 (2.40:1), 23,976 fps, x264 ~1 773 kbps avg, 0.170 bit/pixel
Аудио #1: 48 kHz, AC3 Dolby Digital, 3/2 (L,C,R,l,r) + LFE ch, ~384.00 kbps avg | RUS (iTunes)
Аудио #2: 48 kHz, AC3 Dolby Digital, 3/2 (L,C,R,l,r) + LFE ch, ~448.00 kbps avg | ENG
Дата премьеры (мир): 10 сентября 2018
Дата премьеры (РФ): 6 июня 2019, «Наше Кино»
Цифровой релиз:
Общее
Уникальный идентификатор : 149202256444493707266705328369787613311 (0x703F4F3146F239CC54A4F84181FA307F)
Полное имя : F:OlLanDGroupThe.Axiom.2018.BDRip(AVC).OllanDGroup.mkv
Формат : Matroska
Версия формата : Version 4 / Version 2
Размер файла : 1,66 Гбайт
Продолжительность : 1 ч. 39 м.
Общий поток : 2406 Кбит/сек
Название фильма : The.Axiom.2018 #TorpedoUK#
Дата кодирования : UTC 2019-09-10 06:43:36
Программа кодирования : mkvmerge v29.0.0 ('Like It Or Not') 64-bit
Библиотека кодирования : libebml v1.3.6 + libmatroska v1.4.9

Видео
Идентификатор : 1
Формат : AVC
Формат/Информация : Advanced Video Codec
Профиль формата : High@L4.1
Параметр CABAC формата : Да
Параметр ReFrames формата : 10 кадров
Идентификатор кодека : V_MPEG4/ISO/AVC
Продолжительность : 1 ч. 38 м.
Битрейт : 1773 Кбит/сек
Ширина : 1024 пикселя
Высота : 426 пикселей
Соотношение сторон : 2,40:1
Режим частоты кадров : Постоянный
Частота кадров : 23,976 (24000/1001) кадра/сек
Цветовое пространство : YUV
Субдискретизация насыщенности : 4:2:0
Битовая глубина : 8 бит
Тип развёртки : Прогрессивная
Бит/(Пиксели*Кадры) : 0.170
Размер потока : 1,22 Гбайт (73%)
Библиотека кодирования : x264 core 146 r2538 121396c
Настройки программы : cabac=1 / ref=10 / deblock=1:-3:-3 / analyse=0x3:0x113 / me=umh / subme=11 / psy=1 / psy_rd=0.98:0.04 / mixed_ref=1 / me_range=48 / chroma_me=1 / trellis=2 / 8x8dct=1 / cqm=0 / deadzone=21,11 / fast_pskip=1 / chroma_qp_offset=-6 / threads=6 / lookahead_threads=1 / sliced_threads=0 / nr=0 / decimate=1 / interlaced=0 / bluray_compat=0 / constrained_intra=0 / bframes=11 / b_pyramid=2 / b_adapt=2 / b_bias=0 / direct=3 / weightb=1 / open_gop=0 / weightp=2 / keyint=240 / keyint_min=23 / scenecut=40 / intra_refresh=0 / rc_lookahead=40 / rc=2pass / mbtree=0 / bitrate=1773 / ratetol=1.0 / qcomp=0.60 / qpmin=0 / qpmax=69 / qpstep=4 / cplxblur=20.0 / qblur=0.5 / vbv_maxrate=50000 / vbv_bufsize=62500 / nal_hrd=none / filler=0 / ip_ratio=1.40 / pb_ratio=1.30 / aq=1:1.00
Язык : English
Default : Да
Forced : Нет

Аудио #1
Идентификатор : 2
Формат : AC-3
Формат/Информация : Audio Coding 3
Расширение режима : CM (complete main)
Параметр Endianness формата : Big
Идентификатор кодека : A_AC3
Продолжительность : 1 ч. 39 м.
Вид битрейта : Постоянный
Битрейт : 192 Кбит/сек
Каналы : 2 канала
Расположение каналов : Front: L R
Частота : 48,0 КГц
Частота кадров : 31,250 кадров/сек (1536 spf)
Битовая глубина : 16 бит
Метод сжатия : С потерями
Размер потока : 136 Мбайт (8%)
Заголовок : MVO [HDRezka Studio]
Язык : Russian
Default : Да
Forced : Нет

Аудио #2
Идентификатор : 3
Формат : AC-3
Формат/Информация : Audio Coding 3
Расширение режима : CM (complete main)
Параметр Endianness формата : Big
Идентификатор кодека : A_AC3
Продолжительность : 1 ч. 38 м.
Вид битрейта : Постоянный
Битрейт : 448 Кбит/сек
Каналы : 6 каналов
Расположение каналов : Front: L C R, Side: L R, LFE
Частота : 48,0 КГц
Частота кадров : 31,250 кадров/сек (1536 spf)
Битовая глубина : 16 бит
Метод сжатия : С потерями
Размер потока : 316 Мбайт (19%)
Заголовок : [Original]
Язык : English
Default : Нет
Forced : Нет

Текст
Идентификатор : 4
Формат : UTF-8
Идентификатор кодека : S_TEXT/UTF8
Идентификатор кодека/Информация : UTF-8 Plain Text
Продолжительность : 1 ч. 36 м.
Битрейт : 57 бит/сек
Count of elements : 1539
Размер потока : 40,2 Кбайт (0%)
Заголовок : Full
Язык : English
Default : Нет
Forced : Нет

Меню
00:00:00.000 : :Глава 01
00:09:08.923 : :Глава 02
00:22:19.004 : :Глава 03
00:35:04.936 : :Глава 04
00:48:10.929 : :Глава 05
00:58:23.917 : :Глава 06
01:10:24.970 : :Глава 07
01:22:59.891 : :Глава 08
01:35:52.955 : :Глава 09
Источник http://BlaTor.org

Трекер:  [ 10-Сен-2019 10:00 ]

  

Скачать .torrent

Размер .torrent файла 17 KB


Размер: 1.66 GB
Хэш (hash) релиза: 3e4781e7a289233304215ec82990b937ca54d131
Подписка на обновления:

Еще никто не оставлял запись к записи скачать торрент Аксиома The Axiom . Будь первым!

!Обратная связь