Скачать через торрент Анна Anna Фильм бесплатно в хорошем качестве torrent

Скачивайте на UnionPeer.org фильмы через торрент без регистрации. Новинки кино в хорошем качестве через торрент. На UnionPeer.org можно скачать через торрент фильмы 2014 и 2015 годов. Самые новые фильмы.

Скачать торрент Анна Anna бесплатно через .torrent фильм мультфильм сериал

Статистика раздачи
Размер:  1.65 GB   |    Зарегистрирован:  1 месяц 6 дней   |    .torrent скачан:  682 раза   |   
Раздают:  4  
   
загрузка...
 
Автор Сообщение

Galfimbul

avatar Galfimbul


Анна / Anna
«Никогда не делай оружие мишенью»


Год выпуска: 2019
Страна: Франция, США
Производство: Summit Entertainment, EuropaCorp, Canal+
Жанр: Боевик, триллер
Режиссёр: Люк Бессон
В ролях: Саша Лусс, Хелен Миррен, Люк Эванс, Киллиан Мёрфи, Лера Абова, Александр Петров (II), Никита Павленко, Анна Криппа, Алексей Маслодудов, Эрик Годон, Иван Франек, Жан-Батист Пюэк, Хакан Кан, Элисон Вилер, Эндрю Ховард, Ян Оливер Шрёдер, Луиз Паркер, Лорен Ферраро, Мабу Куяте, Полин Хорау, Жан-Марк Монтальто
Перевод: Профессиональный многоголосый | [HDRezka Studio]
Субтитры: Английские
Реклама: Отсутствует

Описание: Действие фильма разворачивается в конце 1980-х годов. Анна (Саша Лусс) – молодая симпатичная девушка – оказывается на пороге самых значительных событий в своей жизни. Из-за своей поразительной красоты она кажется слабой и беззащитной, но под этой маской скрывается неуемная мощь одного из самых опасных наемных убийц в мире. Анна оказывается втянутой в цепочку криминальных событий, и все происходящее с ней грозит смертельной опасностью.


Качество: WEB-DLRip-AVC | iTunes Version |
Продолжительность: 01:59:04

Формат: MKV
Видео кодек: MPEG-4 AVC
Аудио кодек: AC3
Видео: 1024x428 (2.40:1), 23,976 fps, x264 ~1 795 kbps avg, 0.171 bit/pixel
Аудио #1: 48 kHz, AC3 Dolby Digital, 2 (L,R) ch, ~192.00 kbps avg | RUS (HDRezka Studio)

* Без хардсаба!
Дата премьеры (мир): 19 июня 2019
Дата премьеры (РФ): 11 июля 2019, «Централ Партнершип»
Цифровой релиз:
Общее
Уникальный идентификатор : 251393863952010694373120405086854458869 (0xBD20B27158D8B577E06BB17513902DF5)
Полное имя : F:OlLanDGroupAnna.2019.WEB-DLRip(AVC).OlLanDGroup.mkv
Формат : Matroska
Версия формата : Version 4 / Version 2
Размер файла : 1,65 Гбайт
Продолжительность : 1 ч. 59 м.
Общий поток : 1988 Кбит/сек
Название фильма : Anna.2019 #TorpedoUK#
Дата кодирования : UTC 2019-09-15 01:52:26
Программа кодирования : mkvmerge v29.0.0 ('Like It Or Not') 64-bit
Библиотека кодирования : libebml v1.3.6 + libmatroska v1.4.9

Видео
Идентификатор : 1
Формат : AVC
Формат/Информация : Advanced Video Codec
Профиль формата : High@L4.1
Параметр CABAC формата : Да
Параметр ReFrames формата : 10 кадров
Идентификатор кодека : V_MPEG4/ISO/AVC
Продолжительность : 1 ч. 59 м.
Битрейт : 1795 Кбит/сек
Ширина : 1024 пикселя
Высота : 428 пикселей
Соотношение сторон : 2,40:1
Режим частоты кадров : Постоянный
Частота кадров : 23,976 (24000/1001) кадра/сек
Цветовое пространство : YUV
Субдискретизация насыщенности : 4:2:0
Битовая глубина : 8 бит
Тип развёртки : Прогрессивная
Бит/(Пиксели*Кадры) : 0.171
Размер потока : 1,49 Гбайт (90%)
Библиотека кодирования : x264 core 146 r2538 121396c
Настройки программы : cabac=1 / ref=10 / deblock=1:-3:-3 / analyse=0x3:0x113 / me=umh / subme=10 / psy=1 / psy_rd=0.97:0.05 / mixed_ref=1 / me_range=48 / chroma_me=1 / trellis=2 / 8x8dct=1 / cqm=0 / deadzone=21,11 / fast_pskip=1 / chroma_qp_offset=-6 / threads=6 / lookahead_threads=1 / sliced_threads=0 / nr=0 / decimate=1 / interlaced=0 / bluray_compat=0 / constrained_intra=0 / bframes=11 / b_pyramid=2 / b_adapt=2 / b_bias=0 / direct=3 / weightb=1 / open_gop=0 / weightp=2 / keyint=240 / keyint_min=23 / scenecut=40 / intra_refresh=0 / rc_lookahead=40 / rc=2pass / mbtree=0 / bitrate=1795 / ratetol=1.0 / qcomp=0.60 / qpmin=0 / qpmax=69 / qpstep=4 / cplxblur=20.0 / qblur=0.5 / vbv_maxrate=50000 / vbv_bufsize=62500 / nal_hrd=none / filler=0 / ip_ratio=1.40 / pb_ratio=1.30 / aq=1:1.00
Язык : English
Default : Да
Forced : Нет

Аудио
Идентификатор : 2
Формат : AC-3
Формат/Информация : Audio Coding 3
Расширение режима : CM (complete main)
Параметр Endianness формата : Big
Идентификатор кодека : A_AC3
Продолжительность : 1 ч. 58 м.
Вид битрейта : Постоянный
Битрейт : 192 Кбит/сек
Каналы : 2 канала
Расположение каналов : Front: L R
Частота : 48,0 КГц
Частота кадров : 31,250 кадров/сек (1536 spf)
Битовая глубина : 16 бит
Метод сжатия : С потерями
Размер потока : 163 Мбайт (10%)
Заголовок : MVO [HDRezka Studio]
Язык : Russian
Default : Да
Forced : Нет

Текст
Идентификатор : 3
Формат : UTF-8
Идентификатор кодека : S_TEXT/UTF8
Идентификатор кодека/Информация : UTF-8 Plain Text
Продолжительность : 1 ч. 52 м.
Битрейт : 47 бит/сек
Count of elements : 1308
Размер потока : 39,3 Кбайт (0%)
Язык : English
Default : Нет
Forced : Нет

Меню
00:00:00.000 : en:1
00:31:21.000 : en:2
00:59:04.000 : en:3
01:30:44.000 : en:4
01:53:28.000 : en:5
Источник http://BlaTor.org

Трекер:  [ 15-Сен-2019 05:20 ]

  

Скачать .torrent

Размер .torrent файла 17 KB


Размер: 1.65 GB
Хэш (hash) релиза: 66f830b8eb44e2bdd43cbd096620b8e2fcbd2042
Подписка на обновления:

Торренты, похожие на Анна Anna скачать торрент

Форум Название Автор Размер S L Добавлен
Зарубежные фильмы 2016-2018 (Новинки зарубежного кино) ·%· Анна / Anna (2019) BDRip от Twister & ExKinoRay | iTunes Galfimbul 15689021841.46 GB 2 0 1569432618

20:30

25-Сен-19

Зарубежные фильмы 2016-2018 (Новинки зарубежного кино) ·%· Анна / Anna (2019) BDRip от Twister & ExKinoRay | iTunes Galfimbul 22860567922.13 GB 0 0 1569432608

20:30

25-Сен-19

Зарубежные фильмы 2016-2018 (Новинки зарубежного кино) ·%· Анна / Anna (2019) BDRip 720p от k.e.n & MegaPeer | D, P | iTunes Galfimbul 50522412914.71 GB 0 0 1569407417

13:30

25-Сен-19

Зарубежные фильмы 2016-2018 (Новинки зарубежного кино) ·%· Анна / Anna (2019) BDRip 1080p от селезень | D, P | iTunes Galfimbul 102027546149.5 GB 2 0 1568935829

02:30

20-Сен-19

Зарубежные фильмы 2016-2018 (Новинки зарубежного кино) ·%· Анна / Anna (2019) BDRip от MegaPeer | iTunes Galfimbul 23448596482.18 GB 3 0 1568935819

02:30

20-Сен-19

Зарубежные фильмы 2016-2018 (Новинки зарубежного кино) ·%· Анна / Anna (2019) BDRip 720p от селезень | D, P | iTunes Galfimbul 59957682975.58 GB 0 0 1568935809

02:30

20-Сен-19

Зарубежные фильмы до 2016 ·· Анна / Anna (Альберто Латтуада / Alberto Lattuada) [1951, Италия, Франция, драма, DVD5 (Custom)] VO (fiendover) + Sub Rus (Miss Morti) + Sub Eng + Original Ita Galfimbul 44603084804.15 GB 0 0 1455362688

14:24

13-Фев-16

Зарубежные сериалы ·· Лучшая подруга прекрасной Анны / Anna-san no Omame [10/10] [RAW] [JAP+SUB] [Япония, 2006, Романтическая комедия, HDTVRip] Galfimbul 1529899275514.25 GB 0 0 1440334599

15:56

23-Авг-15

Зарубежные фильмы до 2016 ·· Анна / Anna (Пьер Коральник / Pierre Koralnik) [1967, мюзикл, мелодрама, комедия, DVDRip] sub Galfimbul 15669405321.46 GB 0 0 1355312340

14:39

12-Дек-12

Зарубежные фильмы до 2016 ·· Анна / Anna (Пьер Коральник / Pierre Koralnik) [1967, мюзикл, мелодрама, комедия, DVDRip] sub Galfimbul 781438324745 MB 0 0 1355312340

14:39

12-Дек-12

Зарубежные фильмы 2016-2018 (Новинки зарубежного кино) ·· Жизнь с Анной / Le temps d'Anna / Anna's Time (Грег Зглински / Greg Zglinski) [2016, Швейцария, мелодрама, драма, DVB] Original (Fre) + Sub (Rus, Eng, Fre, Deu) Galfimbul 21151854331.97 GB 0 0 1497628880

19:01

16-Июн-17

Зарубежные фильмы до 2016 ·· Труп Анны Фритц / El cadáver de Anna Fritz / The Corpse of Anna Fritz (Гектор Эрнандес / Hèctor Hernández Vicens) [2015, Испания, триллер, драма, BDRip] AVO (Андрей Дольский) + Original Spa Galfimbul 15637606401.46 GB 0 0 1457009596

15:53

3-Мар-16

Документальные фильмы и телепередачи ·· Секреты Анны-Николь Смит / Anna Nicole Smith - Exposed (Реймонд Мартино, Анна Николь Смит) [1998, Эротика, DVDRip] damien1990 856936393817 MB 0 0 1363378718

23:18

15-Мар-13

Российские сериалы ·· Анна Герман (Анна Герман. Тайна белого ангела) / Anna German. Tajemnica Białego Anioła / Серии: 1-10 из 10 (Вальдемар Кшистек, Александр Тименко) [2012, драма, биография, SATRip-AVC] Galfimbul 69965239706.52 GB 0 0 1361696235

11:57

24-Фев-13

Зарубежные фильмы до 2016 ·· Анна и принц / Anna und der Prinz / Geliebter Johann geliebte Anna (Юлиан Пельслер / Julian Pölsler) [2009, Австрия, Германия, драма, мелодрама, история, DVDRip] MVO (Культура) Galfimbul 784703488748 MB 0 0 1355304600

12:30

12-Дек-12

Зарубежные фильмы 2016-2018 (Новинки зарубежного кино) ·%· Анна и апокалипсис / Anna and the Apocalypse (2017) WEB-DL 1080p от OlLanDGroup | HDRezka Studio Galfimbul 60109992595.6 GB 0 0 1550983819

07:50

24-Фев-19

Зарубежные фильмы 2016-2018 (Новинки зарубежного кино) ·%· Анна и апокалипсис / Anna and the Apocalypse (2017) WEB-DLRip-AVC от OlLanDGroup | HDRezka Studio Galfimbul 17460642341.63 GB 0 0 1550983810

07:50

24-Фев-19

Зарубежные фильмы 2016-2018 (Новинки зарубежного кино) ·%· Анна Николь / Anna Nicole (2013) WEB-DL 1080p | P Galfimbul 34934349653.25 GB 0 0 1536347179

22:06

7-Сен-18

Спорт ·%· WTA Premier San Jose 18/ 2-й круг/ Анна Блинкова (Россия) — Виктория Азаренко (Беларусь)/ Anna Blinkova — Victoria Azarenka/ Матч! Игра HD [02.08.18/Теннис/IPTV/1080i/TS/H.264/RU] Galfimbul 33367990283.11 GB 0 0 1533181334

06:42

2-Авг-18

gtk87

Йовович в ахуе в обморок упала, тощая Анютка мечет похлеще неё типо... ))

Хотите добавить комментарий к записи скачать торрент Анна Anna

!Обратная связь