Скачать через торрент Божественная ярость The Divine Fury Фильм бесплатно в хорошем качестве torrent

Скачивайте на UnionPeer.org фильмы через торрент без регистрации. Новинки кино в хорошем качестве через торрент. На UnionPeer.org можно скачать через торрент фильмы 2014 и 2015 годов. Самые новые фильмы.

Скачать торрент Божественная ярость The Divine Fury бесплатно через .torrent фильм мультфильм сериал

Статистика раздачи
Размер:  5.15 GB   |    Зарегистрирован:  4 года 5 месяцев   |    .torrent скачан:  97 раз   |   
Раздают:  1  
 

Скачать Божественная ярость / The Divine Fury / Saja (2019) WEB-DL 1080p | L2 через torrent

 
 
Автор Сообщение

Galfimbul

avatar Galfimbul


Божественная ярость /The Divine Fury / Saja

Год выхода: 2019
Жанр: ужасы, фэнтези, боевик
Режиссер: Ким Джу-хван
В ролях: Пак Со-джун, Ан Сон-ги, У До-хван, Пак Чи-хён, Чон Джи-хун, Ли Сын-хи, Щим Хи-соп, Ким Щи-ын, Чхве У-щик, Чо Ын-хён

О фильме:
Когда Ён-ху был ребёнком, его отец, полицейский и очень религиозный человек, погиб при исполнении. С тех пор парень живёт, затаив на Бога обиду, не любит сближаться с людьми и предпочёл реализоваться в MMA. Однажды на ладони ударной правой руки Ён-ху проступает стигмат, и с тех пор по ночам его приходят мучить злые потусторонние сущности. Пытаясь разобраться в происходящем, парень встречает священника-экзорциста, с которым ему придется наладить отношения, чтобы вместе противостоять дьявольским силам.



Страна: Южная Корея
Продолжительность: 02:09:06
Перевод 1: Любительский (двухголосый закадровый) SOFTBOX // Перевод: ФСГ 'АЗАЛИИ'
Перевод 2: Любительский (двухголосый закадровый) Храм Дорам // Перевод: ФСГ 'АЗАЛИИ'
Субтитры: английские (не очень хорошие...), корейский хардсаб на другие языки
Оригинальная аудиодорожка: корейский

Файл
Качество: WEB-DL 1080p
Видео: AVC (x264), 1920x1080 (16:9) at 23,976 fps, 5000 Кbps
Аудио 1: AC3; 192 Kbps; CBR; 2 ch; 48 khz | SOFTBOX |
Аудио 2: AC3; 192 Kbps; CBR; 2 ch; 48 khz | Храм Дорам |
Аудио 3: AAC; 128 Kbps; VBR; 2 ch; 48 khz | Корейский / WEB-DL |
Аудио 4: AAC; 192 Kbps; VBR; 2 ch; 48 khz | Корейский / WEBRip |
General
Unique ID : 156946572422492373114384924866074456446 (0x7612CF7314A75C9DDF4341A1193D317E)
Complete name : Божественная ярость.2019.DVO.1080p.WEB-DL.x264-AppleTor.mkv
Format : Matroska
Format version : Version 4
File size : 5.15 GiB
Duration : 2 h 9 min
Overall bit rate : 5 706 kb/s
Movie name : The Divine Fury [2019] [1080p] 2x DVO
Encoded date : UTC 2019-09-15 13:52:17
Writing application : mkvmerge v37.0.0 ('Leave It') 32-bit
Writing library : libebml v1.3.9 + libmatroska v1.5.2
Attachments : poster.jpg
DIRECTOR : Joo-hwan Kim
GENRE : Action, Horror, Thriller
IMDB : tt10550884

Video
ID : 1
Format : AVC
Format/Info : Advanced Video Codec
Format profile : Baseline@L4
Format settings : 2 Ref Frames
Format settings, CABAC : No
Format settings, Reference frames : 2 frames
Format settings, GOP : M=1, N=60
Codec ID : V_MPEG4/ISO/AVC
Duration : 2 h 9 min
Bit rate mode : Constant
Bit rate : 5 000 kb/s
Width : 1 920 pixels
Height : 1 080 pixels
Display aspect ratio : 16:9
Frame rate mode : Constant
Frame rate : 23.976 (24000/1001) FPS
Color space : YUV
Chroma subsampling : 4:2:0
Bit depth : 8 bits
Scan type : Progressive
Bits/(Pixel*Frame) : 0.101
Stream size : 4.51 GiB (88%)
Language : Korean
Default : Yes
Forced : No

Audio #1
ID : 2
Format : AC-3
Format/Info : Audio Coding 3
Commercial name : Dolby Digital
Codec ID : A_AC3
Duration : 2 h 9 min
Bit rate mode : Constant
Bit rate : 192 kb/s
Channel(s) : 2 channels
Channel layout : L R
Sampling rate : 48.0 kHz
Frame rate : 31.250 FPS (1536 SPF)
Bit depth : 16 bits
Compression mode : Lossy
Stream size : 177 MiB (3%)
Title : DVO [SOFTBOX]
Language : Russian
Service kind : Complete Main
Default : Yes
Forced : No

Audio #2
ID : 3
Format : AC-3
Format/Info : Audio Coding 3
Commercial name : Dolby Digital
Codec ID : A_AC3
Duration : 2 h 9 min
Bit rate mode : Constant
Bit rate : 192 kb/s
Channel(s) : 2 channels
Channel layout : L R
Sampling rate : 48.0 kHz
Frame rate : 31.250 FPS (1536 SPF)
Bit depth : 16 bits
Compression mode : Lossy
Stream size : 177 MiB (3%)
Title : DVO [Храм Дорам]
Language : Russian
Service kind : Complete Main
Default : No
Forced : No

Audio #3
ID : 4
Format : AAC LC
Format/Info : Advanced Audio Codec Low Complexity
Codec ID : A_AAC-2
Duration : 2 h 9 min
Bit rate : 128 kb/s
Channel(s) : 2 channels
Channel layout : L R
Sampling rate : 48.0 kHz
Frame rate : 46.875 FPS (1024 SPF)
Compression mode : Lossy
Stream size : 118 MiB (2%)
Title : WEB 1 (original)
Language : Korean
Default : No
Forced : No

Audio #4
ID : 5
Format : AAC LC
Format/Info : Advanced Audio Codec Low Complexity
Codec ID : A_AAC-2
Duration : 2 h 9 min
Bit rate : 192 kb/s
Channel(s) : 2 channels
Channel layout : L R
Sampling rate : 48.0 kHz
Frame rate : 46.875 FPS (1024 SPF)
Compression mode : Lossy
Stream size : 177 MiB (3%)
Title : WEB 2 (alternative mix)
Language : Korean
Default : No
Forced : No

Text
ID : 6
Format : UTF-8
Codec ID : S_TEXT/UTF8
Codec ID/Info : UTF-8 Plain Text
Duration : 2 h 3 min
Bit rate : 24 b/s
Count of elements : 626
Stream size : 22.1 KiB (0%)
Title : bad
Language : English
Default : No
Forced : No

Menu
00:00:00.000 : :Глава 01
00:12:00.000 : :Глава 02
00:24:00.000 : :Глава 03
00:36:00.000 : :Глава 04
00:48:00.000 : :Глава 05
01:00:00.000 : :Глава 06
01:12:00.000 : :Глава 07
01:24:00.000 : :Глава 08
01:36:00.000 : :Глава 09
01:48:00.000 : :Глава 10
02:00:00.000 : :Глава 11
Источник http://BlaTor.org

Внимание! AdBlock блокирует показ скриншотов, все вопросы к разработчикам )))
Трекер:  [ 19-Сен-2019 13:00 ]

  

Скачать .torrent

Размер .torrent файла 13 KB


Размер: 5.15 GB
Хэш (hash) релиза: ec6262060150088774bf26b6c145d20a8b88671d
Подписка на обновления:

Торренты, похожие на Божественная ярость The Divine Fury скачать торрент

Форум Название Автор Размер S L Добавлен
Зарубежные фильмы 2016-2019 (Новинки зарубежного кино) ·%· Божественная ярость / The Divine Fury / Saja (2019) BDRip 1080p | L2 Galfimbul 1604505510014.94 GB 0 0 1586685693

13:01

12-Апр-20

Зарубежные фильмы 2016-2019 (Новинки зарубежного кино) ·%· Божественная ярость / The Divine Fury / Saja (2019) WEB-DLRip от Scarabey | L2 Galfimbul 15823749121.47 GB 0 0 1573495810

21:10

11-Ноя-19

Еще никто не оставлял запись к записи скачать торрент Божественная ярость The Divine Fury . Будь первым!

!Обратная связь