Скачать через торрент Человек-паук: Вдали от дома Spider-Man: Far from Home Фильм бесплатно в хорошем качестве torrent

Скачивайте на UnionPeer.org фильмы через торрент без регистрации. Новинки кино в хорошем качестве через торрент. На UnionPeer.org можно скачать через торрент фильмы 2014 и 2015 годов. Самые новые фильмы.

Скачать торрент Человек-паук: Вдали от дома Spider-Man: Far from Home бесплатно через .torrent фильм мультфильм сериал

Статистика раздачи
Размер:  4.51 GB   |    Зарегистрирован:  1 месяц 2 дня   |    .torrent скачан:  392 раза   |   
Раздают:  2  
   
загрузка...
 
Автор Сообщение

Galfimbul

avatar Galfimbul


Человек-паук: Вдали от дома /Spider-Man: Far from Home

Год выхода: 2019
Жанр: Фантастика, боевик, приключения
Режиссер: Джон Уоттс
В ролях: Том Холланд (II), Зендая Колеман, Энгаури Райс, Джон Фавро, Джейк Джилленхол, Сэмюэл Л. Джексон, Коби Смолдерс, Мариса Томей, Мартин Старр, Нуман Аджар, Джейкоб Баталон, Тони Револори



О фильме: Питер Паркер вместе с друзьями отправляется на летние каникулы в Европу. Однако отдохнуть приятелям вряд ли удастся - Питеру придется согласиться помочь Нику Фьюри раскрыть тайну существ, вызывающих стихийные бедствия и разрушения по всему континенту.

Страна: США
Студия: Columbia Pictures, Marvel Studios, Pascal Pictures
Продолжительность: 02:09:23
Перевод: Профессиональный многоголосый | HDRezka Studio

Качество: BDRip 720p
Видео: MPEG-4 AVC, 1280x536, 4155 Kbit/s, 23.976 fps
Аудио #01: 48 kHz, AC3, 2.0, 192 Kbps | HDRezka Studio | RUS |
Аудио #02: 48 kHz, AC3, 5.1, 640 Kbps | Оригинал | ENG |
Субтитры: Русские (Full), английские

General
Unique ID : 131591006984076100003349411422213262041 (0x62FF818E36E5CFB028E646A74E284AD9)
Complete name : D:Video111Spider.Man.Far.from.Home.2019.MVO.BDRip.720p.seleZen.mkv
Format : Matroska
Format version : Version 4
File size : 4.51 GiB
Duration : 2 h 9 min
Overall bit rate : 4 990 kb/s
Movie name : Spider Man Far from Home 2019 from селезень
Encoded date : UTC 2019-09-19 09:49:00
Writing application : mkvmerge v22.0.0 ('At The End Of The World') 64-bit
Writing library : libebml v1.3.5 + libmatroska v1.4.8

Video
ID : 1
Format : AVC
Format/Info : Advanced Video Codec
Format profile : High@L4.1
Format settings : CABAC / 12 Ref Frames
Format settings, CABAC : Yes
Format settings, Reference : 12 frames
Codec ID : V_MPEG4/ISO/AVC
Duration : 2 h 9 min
Bit rate : 4 155 kb/s
Width : 1 280 pixels
Height : 536 pixels
Display aspect ratio : 2.40:1
Frame rate mode : Constant
Frame rate : 23.976 (24000/1001) FPS
Color space : YUV
Chroma subsampling : 4:2:0
Bit depth : 8 bits
Scan type : Progressive
Bits/(Pixel*Frame) : 0.253
Stream size : 3.76 GiB (83%)
Title : MTeam
Writing library : x264 core 157 r2938 2b00a84 TnP@MTeam Mod
Encoding settings : cabac=1 / ref=12 / deblock=1:-3:-3 / analyse=0x3:0x133 / me=umh / subme=10 / psy=1 / psy_rd=1.05:0.00 / mixed_ref=1 / me_range=32 / chroma_me=1 / trellis=2 / 8x8dct=1 / cqm=0 / deadzone=21,11 / fast_pskip=0 / chroma_qp_offset=-2 / threads=12 / lookahead_threads=2 / sliced_threads=0 / nr=0 / decimate=0 / interlaced=0 / bluray_compat=0 / constrained_intra=0 / bframes=8 / b_pyramid=2 / b_adapt=2 / b_bias=0 / direct=3 / weightb=1 / open_gop=0 / weightp=2 / keyint=250 / keyint_min=24 / scenecut=40 / intra_refresh=0 / rc_lookahead=250 / rc=crf / mbtree=0 / crf=16.1 / qcomp=0.60 / qpmin=0 / qpmax=69 / qpstep=4 / vbv_maxrate=62500 / vbv_bufsize=78125 / crf_max=0.0 / nal_hrd=none / filler=0 / ip_ratio=1.30 / pb_ratio=1.20 / aq=3:0.80
Language : English
Default : Yes
Forced : No
Color range : Limited
Color primaries : BT.709
Matrix coefficients : BT.709

Audio #1
ID : 2
Format : AC-3
Format/Info : Audio Coding 3
Commercial name : Dolby Digital
Codec ID : A_AC3
Duration : 2 h 9 min
Bit rate mode : Constant
Bit rate : 192 kb/s
Channel(s) : 2 channels
Channel layout : L R
Sampling rate : 48.0 kHz
Frame rate : 31.250 FPS (1536 SPF)
Bit depth : 16 bits
Compression mode : Lossy
Stream size : 178 MiB (4%)
Title : MVO [HDRezka Studio]
Language : Russian
Service kind : Complete Main
Default : Yes
Forced : Yes

Audio #2
ID : 3
Format : AC-3
Format/Info : Audio Coding 3
Commercial name : Dolby Digital
Codec ID : A_AC3
Duration : 2 h 9 min
Bit rate mode : Constant
Bit rate : 640 kb/s
Channel(s) : 6 channels
Channel layout : L R C LFE Ls Rs
Sampling rate : 48.0 kHz
Frame rate : 31.250 FPS (1536 SPF)
Bit depth : 16 bits
Compression mode : Lossy
Stream size : 592 MiB (13%)
Title : Original
Language : English
Service kind : Complete Main
Default : No
Forced : No

Text #1
ID : 4
Format : UTF-8
Codec ID : S_TEXT/UTF8
Codec ID/Info : UTF-8 Plain Text
Duration : 2 h 8 min
Bit rate : 92 b/s
Count of elements : 1666
Stream size : 86.8 KiB (0%)
Title : Full [Елена, Лев Вержбицкие]
Language : Russian
Default : No
Forced : No

Text #2
ID : 5
Format : UTF-8
Codec ID : S_TEXT/UTF8
Codec ID/Info : UTF-8 Plain Text
Duration : 2 h 7 min
Bit rate : 62 b/s
Count of elements : 1749
Stream size : 58.2 KiB (0%)
Title : Full
Language : English
Default : No
Forced : No

Text #3
ID : 6
Format : UTF-8
Codec ID : S_TEXT/UTF8
Codec ID/Info : UTF-8 Plain Text
Duration : 2 h 8 min
Bit rate : 68 b/s
Count of elements : 1929
Stream size : 64.0 KiB (0%)
Title : SDH
Language : English
Default : No
Forced : No

Menu
00:00:00.000 : en:Chapter 01
00:09:35.033 : en:Chapter 02
00:16:06.716 : en:Chapter 03
00:25:18.475 : en:Chapter 04
00:35:26.499 : en:Chapter 05
00:41:57.014 : en:Chapter 06
00:49:50.029 : en:Chapter 07
00:57:09.509 : en:Chapter 08
01:04:50.637 : en:Chapter 09
01:15:57.219 : en:Chapter 10
01:22:49.089 : en:Chapter 11
01:29:25.193 : en:Chapter 12
01:36:43.256 : en:Chapter 13
01:44:47.364 : en:Chapter 14
01:52:17.397 : en:Chapter 15
01:57:45.433 : en:Chapter 16
Источник http://BlaTor.org

Трекер:  [ 19-Сен-2019 13:10 ]

  

Скачать .torrent

Размер .torrent файла 6 KB


Размер: 4.51 GB
Хэш (hash) релиза: 1222b10dcfb314c4d6d794e71c53667a42ba6bea
Подписка на обновления:

Торренты, похожие на Человек-паук: Вдали от дома Spider-Man: Far from Home скачать торрент

Форум Название Автор Размер S L Добавлен
Зарубежные фильмы 2016-2018 (Новинки зарубежного кино) ·%· Человек-паук: Вдали от дома / Spider-Man: Far from Home (2019) BDRip-AVC от HELLYWOOD | iTunes Galfimbul 30606377192.85 GB 0 0 1571542207

06:30

20-Окт-19

Зарубежные фильмы 2016-2018 (Новинки зарубежного кино) ·%· Человек-паук: Вдали от дома / Spider-Man: Far from Home (2019) HDRip от Generalfilm | КПК | iTunes Galfimbul 516398995492 MB 0 0 1570525815

12:10

8-Окт-19

Зарубежные фильмы 2016-2018 (Новинки зарубежного кино) ·%· Человек-паук: Вдали от дома / Spider-Man: Far from Home (2019) BDRip 1080p от Ash61 | 3D-Video | halfOU | iTunes Galfimbul 1107301548610.31 GB 0 0 1569856208

18:10

30-Сен-19

Зарубежные фильмы 2016-2018 (Новинки зарубежного кино) ·%· Человек-паук: Вдали от дома / Spider-Man: Far From Home (2019) BDRip от Twister & ExKinoRay | iTunes Galfimbul 15697358521.46 GB 2 0 1569855022

17:50

30-Сен-19

Зарубежные фильмы 2016-2018 (Новинки зарубежного кино) ·%· Человек-паук: Вдали от дома / Spider-Man: Far From Home (2019) BDRip от Twister & ExKinoRay | iTunes Galfimbul 22815780702.12 GB 0 0 1569855013

17:50

30-Сен-19

Зарубежные фильмы 2016-2018 (Новинки зарубежного кино) ·%· Человек-паук: Вдали от дома / Spider-Man: Far from Home (2019) BDRemux 1080p от селезень | 3D-Video | iTunes Galfimbul 3851373772835.87 GB 0 0 1569791409

00:10

30-Сен-19

Зарубежные фильмы 2016-2018 (Новинки зарубежного кино) ·%· Человек-паук: Вдали от дома / Spider-Man: Far from Home (2019) BDRip-HEVC 1080p от Scarabey | iTunes Galfimbul 1267671680611.81 GB 0 0 1569607820

21:10

27-Сен-19

Зарубежные фильмы 2016-2018 (Новинки зарубежного кино) ·%· Человек-паук: Вдали от дома / Spider-Man: Far from Home (2019) HDRip от Scarabey | iTunes Galfimbul 22743019522.12 GB 0 0 1569607810

21:10

27-Сен-19

Зарубежные фильмы 2016-2018 (Новинки зарубежного кино) ·%· Человек-паук: Вдали от дома / Spider-Man: Far from Home (2019) BDRip 720p от Scarabey | iTunes Galfimbul 71679888656.68 GB 2 0 1569517824

20:10

26-Сен-19

Зарубежные фильмы 2016-2018 (Новинки зарубежного кино) ·%· Человек-паук: Вдали от дома / Spider-Man: Far from Home (2019) BDRip-AVC от ExKinoRay | iTunes Galfimbul 28288184292.63 GB 2 0 1569467407

06:10

26-Сен-19

Зарубежные фильмы 2016-2018 (Новинки зарубежного кино) ·%· Человек-паук: Вдали от дома / Spider-Man: Far from Home (2019) UHD BDRemux 2160p от ExKinoRay | HDR | Dolby Vision | iTunes Galfimbul 6212073217057.85 GB 0 0 1569453020

02:10

26-Сен-19

Зарубежные фильмы 2016-2018 (Новинки зарубежного кино) ·%· Человек-паук: Вдали от дома / Spider-Man: Far from Home (2019) BDRip 1080p от qqss44 & MegaPeer | iTunes Galfimbul 80747816167.52 GB 0 0 1569442223

23:10

25-Сен-19

Зарубежные фильмы 2016-2018 (Новинки зарубежного кино) ·%· Человек-паук: Вдали от дома / Spider-Man: Far from Home (2019) BDRemux 1080p от селезень | D, P | iTunes Galfimbul 2741799722625.53 GB 3 0 1569438620

22:10

25-Сен-19

Зарубежные фильмы 2016-2018 (Новинки зарубежного кино) ·%· Человек-паук: Вдали от дома / Spider-Man: Far from Home (2019) UHD BDRemux 2160p от селезень | 4K | HDR | D, P | iTunes Galfimbul 5646211940952.58 GB 0 0 1569438608

22:10

25-Сен-19

Зарубежные фильмы 2016-2018 (Новинки зарубежного кино) ·%· Человек-паук: Вдали от дома / Spider-Man: Far from Home (2019) BDRip 720p от селезень | D, P | iTunes Galfimbul 47339393934.41 GB 2 0 1569437409

21:50

25-Сен-19

Зарубежные фильмы 2016-2018 (Новинки зарубежного кино) ·%· Человек-паук: Вдали от дома / Spider-Man: Far from Home (2019) BDRip 1080p от селезень | D, P | iTunes Galfimbul 86123909128.02 GB 0 0 1569436212

21:30

25-Сен-19

Зарубежные фильмы 2016-2018 (Новинки зарубежного кино) ·%· Человек-паук: Вдали от дома / Spider-Man: Far from Home (2019) HDRip от Scarabey | HDRezka Studio Galfimbul 835518464797 MB 0 0 1569087010

20:30

21-Сен-19

Зарубежные фильмы 2016-2018 (Новинки зарубежного кино) ·%· Человек-паук: Вдали от дома / Spider-Man: Far from Home (2019) BDRemux 1080p от селезень | HDRezka Studio Galfimbul 2688914139325.04 GB 0 0 1568887220

13:00

19-Сен-19

Зарубежные фильмы 2016-2018 (Новинки зарубежного кино) ·%· Человек-паук: Вдали от дома / Spider-Man: Far from Home (2019) UHD WEB-DL 2160p от селезень | 4K | HDR | HDRezka Studio Galfimbul 2427805752622.61 GB 2 0 1568711522

12:12

17-Сен-19

Еще никто не оставлял запись к записи скачать торрент Человек-паук: Вдали от дома Spider-Man: Far from Home . Будь первым!

!Обратная связь