Скачать через торрент Чернобыль: Зона отчуждения. Финал Фильм бесплатно в хорошем качестве torrent

Скачивайте на UnionPeer.org фильмы через торрент без регистрации. Новинки кино в хорошем качестве через торрент. На UnionPeer.org можно скачать через торрент фильмы 2014 и 2015 годов. Самые новые фильмы.

Скачать торрент Чернобыль: Зона отчуждения. Финал бесплатно через .torrent фильм мультфильм сериал

Статистика раздачи
Размер:  1.09 GB   |    Зарегистрирован:  1 месяц   |    .torrent скачан:  157 раз   |   
Раздают:  1  
   
загрузка...
 
Автор Сообщение

Galfimbul

avatar Galfimbul


Чернобыль: Зона отчуждения. Финал



[b]Год выпуска
: 2019
Жанр: Триллер, фантастика
Выпущено: Россия, «Look Film»
Режиссер: Дмитрий Киселёв
В ролях: Константин Давыдов, Кристина Казинская, Сергей Романович, Анвар Халилулаев, Валерия Дмитриева, Евгений Стычкин, Илья Щербинин, Владимир Ильин, Сергей Дрейден, Евгений Сытый, Иван Мулин, Александр Яценко, Артём Сучков

О фильме: «Чернобыль: Зона отчуждения. Финал» поставит точку в истории пятерых подростков, попытавшихся предотвратить самую известную в мире техногенную катастрофу. Им придётся вернуться, туда, откуда все начиналось – в Чернобыль, чтобы разгадать тайну происхождения Зоны отчуждения. Полнометражный фильм даст ответы на все загадки и интриги, а его создатели обещают выкрутить до максимума динамичность действия, зрелищность экшен-сцен и качество визуальных спецэффектов.


Качество: WEBRip
Видео: XviD build 73, 720x304 (16:9), 25.000 fps, ~ 1350 Kbps (~ 0.240 bit/pixel)
Аудио: 48.0 kHz, AC3, 2/0 ch, 192 kbps
Продолжительность: 1 х ~ 01:40:00
Перевод: Не требуется [Русский]
Cубтитры: нет
General
Complete name : D:RazdachiChernobylj.2019.WEBRip.GeneralFilmChernobylj.e01.avi
Format : AVI
Format/Info : Audio Video Interleave
File size : 1.09 GiB
Duration : 1 h 41 min
Overall bit rate : 1 534 kb/s
Writing application : VirtualDubMod 1.5.10.3 | www.virtualdub-fr.org || (build 2550/release)
Writing library : VirtualDubMod build 2550/release

Video
ID : 0
Format : MPEG-4 Visual
Format profile : Advanced Simple@L5
Format settings : BVOP1 / Custom Matrix
Format settings, BVOP : 1
Format settings, QPel : No
Format settings, GMC : No warppoints
Format settings, Matrix : Custom
Codec ID : XVID
Codec ID/Hint : XviD
Duration : 1 h 41 min
Bit rate : 1 332 kb/s
Width : 720 pixels
Height : 304 pixels
Display aspect ratio : 2.35:1
Frame rate : 25.000 FPS
Color space : YUV
Chroma subsampling : 4:2:0
Bit depth : 8 bits
Scan type : Progressive
Compression mode : Lossy
Bits/(Pixel*Frame) : 0.243
Stream size : 968 MiB (87%)
Writing library : XviD 73

Audio
ID : 1
Format : AC-3
Format/Info : Audio Coding 3
Commercial name : Dolby Digital
Codec ID : 2000
Duration : 1 h 41 min
Bit rate mode : Constant
Bit rate : 192 kb/s
Channel(s) : 2 channels
Channel layout : L R
Sampling rate : 48.0 kHz
Frame rate : 31.250 FPS (1536 SPF)
Bit depth : 16 bits
Compression mode : Lossy
Stream size : 140 MiB (13%)
Alignment : Split accross interleaves
Interleave, duration : 40 ms (1.00 video frame)
Interleave, preload duratio : 500 ms
Service kind : Complete Main
Релиз от:
Источник http://BlaTor.org

Трекер:  [ 21-Сен-2019 05:20 ]

  

Скачать .torrent

Размер .torrent файла 11 KB


Размер: 1.09 GB
Хэш (hash) релиза: 700ab334576974904bbf7cfc619351fe22c77e31
Подписка на обновления:

Торренты, похожие на Чернобыль: Зона отчуждения. Финал скачать торрент

Форум Название Автор Размер S L Добавлен
Российские фильмы 2016-2018 (Новинки русского кино) ·%· Чернобыль: Зона отчуждения. Финал [01-03 из 03 + Фильм о фильме] (2019) WEBRip от Generalfilm | КПК Galfimbul 14209220261.32 GB 2 1 1571233818

16:50

16-Окт-19

Российские фильмы 2016-2018 (Новинки русского кино) ·%· Чернобыль: Зона отчуждения. Финал [01 из 03] (2019) WEBRip 1080p от ExKinoRay Galfimbul 39640387853.69 GB 2 0 1569072615

16:30

21-Сен-19

Еще никто не оставлял запись к записи скачать торрент Чернобыль: Зона отчуждения. Финал . Будь первым!

!Обратная связь