Скачать через торрент Руслан и Людмила: Перезагрузка Фильм бесплатно в хорошем качестве torrent

Скачивайте на UnionPeer.org фильмы через торрент без регистрации. Новинки кино в хорошем качестве через торрент. На UnionPeer.org можно скачать через торрент фильмы 2014 и 2015 годов. Самые новые фильмы.

Скачать торрент Руслан и Людмила: Перезагрузка бесплатно через .torrent фильм мультфильм сериал

Статистика раздачи
Размер:  2.99 GB   |    Зарегистрирован:  28 дней   |    .torrent скачан:  77 раз   |   
Раздают:  2  
   
загрузка...
 
Автор Сообщение

Galfimbul

avatar Galfimbul


«Любовь сильнее магии»

Руслан и Людмила: Перезагрузка



[b]Год выхода:
2018
Жанр: Мультфильм, фэнтези, комедия
Режиссер: Олег Маламуж
Роли озвучивают: Надежда Дорофеева, Алексей Завгородний, Евгений Малуха, Сергей Притула, Юрий Горбунов, Олег Михайлюта, Николай Боклан, Маша Ефросинина, Егор Крутоголов, Евгений Гашенко

О фильме:
Бродячий артист Руслан влюбляется в прекрасную Милу, даже не подозревая, что она принцесса. Когда злой волшебник Черномор похищает его возлюбленную, рассчитывая превратить силу её любви в собственное колдовское могущество, Руслан отправляется в погоню за украденной принцессой. Ему придётся преодолеть все преграды и опасности на своём пути, чтобы доказать, что настоящая любовь сильнее магии.



Страна: Украина
Студия: Animagrad Animation Studio, Film.UA
Продолжительность: 01:27:30
Перевод:
• Профессиональный (полное дублирование) | iTunes

Файл
Качество: WEB-DL 1080p
Формат: MKV
Кодек: MPEG-4 AVC
Видео: 1920x804 (2,40:1), 25 fps, MPEG-4 AVC ~ 4500 Кbps avg, 0.117 bit/pixel
Аудио: AC3, 48 kHz, 6 ch, ~384.00 kbps avg | русский | iTunes

Субтитры: Отсутствуют
Общее
Уникальный идентификатор : 120652779906671679763772724322440778299 (0x5AC4E152CB324F2D8A0D15218CCF123B)
Полное имя : RUSLAN_LUDMILA_PEREZAGRUZKA (2018) WEB-DL 1080p.mkv
Формат : Matroska
Версия формата : Version 4 / Version 2
Размер файла : 2,99 Гбайт
Продолжительность : 1 ч. 27 м.
Общий поток : 4885 Кбит/сек
Название фильма : Руслан и Людмила: Перезагрузка (2018)
Дата кодирования : UTC 2019-09-22 23:05:17
Программа кодирования : mkvmerge v27.0.0 ('Metropolis') 64-bit
Библиотека кодирования : libebml v1.3.6 + libmatroska v1.4.9
Обложка : Yes
Attachments : cover.jpg
Видео
Идентификатор : 1
Формат : AVC
Формат/Информация : Advanced Video Codec
Профиль формата : High@L4
Настройки формата : CABAC / 5 Ref Frames
Параметр CABAC формата : Да
Параметр RefFrames формата : 5 кадров
Идентификатор кодека : V_MPEG4/ISO/AVC
Продолжительность : 1 ч. 27 м.
Битрейт : 4500 Кбит/сек
Ширина : 1920 пикселей
Высота : 804 пикселя
Соотношение сторон : 2,40:1
Режим частоты кадров : Постоянный
Частота кадров : 25,000 кадров/сек
Цветовое пространство : YUV
Субдискретизация насыщенности : 4:2:0
Битовая глубина : 8 бит
Тип развёртки : Прогрессивная
Бит/(Пиксели*Кадры) : 0.117
Размер потока : 2,75 Гбайт (92%)
Заголовок : RUSLAN_LUDMILA_PEREZAGRUZKA (2018) WEB-DL 1080p
Язык : Russian
Default : Да
Forced : Нет
Цветовой диапазон : Limited
Основные цвета : BT.709
Характеристики трансфера : BT.709
Коэффициенты матрицы : BT.709
Аудио
Идентификатор : 2
Формат : AC-3
Формат/Информация : Audio Coding 3
Идентификатор кодека : A_AC3
Продолжительность : 1 ч. 27 м.
Вид битрейта : Постоянный
Битрейт : 384 Кбит/сек
Каналы : 6 каналов
Расположение каналов : Front: L C R, Side: L R, LFE
Частота : 48,0 КГц
Частота кадров : 31,250 кадров/сек (1536 SPF)
Битовая глубина : 16 бит
Метод сжатия : С потерями
Задержка видео : -40 мс.
Размер потока : 240 Мбайт (8%)
Заголовок : RUSLAN_LUDMILA_PEREZAGRUZKA (2018) WEB-DL 1080p | iTunes
Язык : Russian
Default : Да
Forced : Да
Меню
00:00:00.000 : en:Глава 1
00:06:30.880 : en:Глава 2
00:11:18.920 : en:Глава 3
00:17:41.200 : en:Глава 4
00:22:36.239 : en:Глава 5
00:28:31.318 : en:Глава 6
00:35:25.717 : en:Глава 7
00:41:38.077 : en:Глава 8
00:47:15.356 : en:Глава 9
00:53:59.955 : en:Глава 10
01:02:11.315 : en:Глава 11
01:09:53.514 : en:Глава 12
01:17:39.953 : en:Глава 13
Источник http://BlaTor.org

Трекер:  [ 23-Сен-2019 05:20 ]

  

Скачать .torrent

Размер .torrent файла 15 KB


Размер: 2.99 GB
Хэш (hash) релиза: 538f3e1cd1a6213eadd282405d12d3a069d71d22
Подписка на обновления:

Еще никто не оставлял запись к записи скачать торрент Руслан и Людмила: Перезагрузка . Будь первым!

!Обратная связь