Скачать через торрент Форсаж: Хоббс и Шоу Fast & Furious Presents: Hobbs & Shaw Фильм бесплатно в хорошем качестве torrent

Скачивайте на UnionPeer.org фильмы через торрент без регистрации. Новинки кино в хорошем качестве через торрент. На UnionPeer.org можно скачать через торрент фильмы 2014 и 2015 годов. Самые новые фильмы.

Скачать торрент Форсаж: Хоббс и Шоу Fast & Furious Presents: Hobbs & Shaw бесплатно через .torrent фильм мультфильм сериал

Статистика раздачи
Размер:  4.66 GB   |    Зарегистрирован:  24 дня   |    .torrent скачан:  566 раз   |   
Раздают:  1   Качают:  5  
   
загрузка...
 
Автор Сообщение

Galfimbul

avatar Galfimbul


Форсаж: Хоббс и Шоу /Fast & Furious Presents: Hobbs & Shaw

Год выхода: 2019
Жанр: Боевик, приключения
Режиссер: Дэвид Литч
В ролях: Дуэйн Джонсон, Джейсон Стэйтем, Идрис Эльба, Ванесса Кирби, Хелен Миррен, Эйса Гонсалес, Эдди Марсан, Элиана Суа, Клифф Кёртис, Лори Пеленис Туисано



О фильме: Люк Хоббс - американский элитный спецагент, он любит удобную спортивную одежду, большие пикапы и здоровое питание. Декард Шоу - британский пижон, бывший сотрудник разведки, предпочитает дорогие костюмы, спортивные авто и длинноногих красоток. Эти двое ненавидят друг друга. Но если кто-то угрожает их семьям, они готовы пойти на все. Даже на работу в команде.

Страна: Великобритания, США
Студия: Universal Pictures
Продолжительность: 02:15:55
Перевод: Дублированный | iTunes

Качество: WEB-DL 1080p
Видео: MPEG-4 AVC, 1916x796, 4520 Kbit/s, 23.976 fps
Аудио: 48 kHz, AC3, 5.1, 384 Kbps | iTunes | RUS |
Субтитры: Русские (форс. хардсаб)

General
Unique ID : 301603195871695314371566410983402101133 (0xE2E6A9A1CE6BB7BF85238EFEABBBD98D)
Complete name : D:Video111Fast.and.Furious.Presents.Hobbs.and.Shaw.2019.D.WEB-DL.1080p.seleZen.mkv
Format : Matroska
Format version : Version 4
File size : 4.66 GiB
Duration : 2 h 15 min
Overall bit rate : 4 906 kb/s
Movie name : Fast and Furious Presents Hobbs and Shaw 2019 from селезень
Encoded date : UTC 2019-09-27 19:37:31
Writing application : mkvmerge v22.0.0 ('At The End Of The World') 64-bit
Writing library : libebml v1.3.5 + libmatroska v1.4.8

Video
ID : 1
Format : AVC
Format/Info : Advanced Video Codec
Format profile : High@L4
Format settings : CABAC / 5 Ref Frames
Format settings, CABAC : Yes
Format settings, Reference : 5 frames
Codec ID : V_MPEG4/ISO/AVC
Duration : 2 h 15 min
Bit rate : 4 520 kb/s
Width : 1 916 pixels
Height : 796 pixels
Display aspect ratio : 2.40:1
Frame rate mode : Constant
Frame rate : 23.976 (24000/1001) FPS
Color space : YUV
Chroma subsampling : 4:2:0
Bit depth : 8 bits
Scan type : Progressive
Bits/(Pixel*Frame) : 0.124
Stream size : 4.29 GiB (92%)
Language : English
Default : Yes
Forced : No
Color range : Limited
Color primaries : BT.709
Transfer characteristics : BT.709
Matrix coefficients : BT.709

Audio
ID : 2
Format : AC-3
Format/Info : Audio Coding 3
Commercial name : Dolby Digital
Codec ID : A_AC3
Duration : 2 h 15 min
Bit rate mode : Constant
Bit rate : 384 kb/s
Channel(s) : 6 channels
Channel layout : L R C LFE Ls Rs
Sampling rate : 48.0 kHz
Frame rate : 31.250 FPS (1536 SPF)
Bit depth : 16 bits
Compression mode : Lossy
Delay relative to video : -42 ms
Stream size : 373 MiB (8%)
Title : iTunes
Language : Russian
Service kind : Complete Main
Default : Yes
Forced : Yes

Menu
00:00:00.000 : en:1
00:04:59.049 : en:2
00:13:44.491 : en:3
00:19:22.453 : en:4
00:26:46.980 : en:5
00:35:42.514 : en:6
00:40:14.244 : en:7
00:46:23.028 : en:8
00:51:35.214 : en:9
00:57:52.799 : en:10
01:01:54.248 : en:11
01:08:46.158 : en:12
01:14:23.829 : en:13
01:19:49.070 : en:14
01:25:00.255 : en:15
01:32:59.191 : en:16
01:38:49.916 : en:17
01:46:33.962 : en:18
01:53:30.585 : en:19
02:01:15.800 : en:20
Источник http://BlaTor.org

Трекер:  [ 27-Сен-2019 22:50 ]

  

Скачать .torrent

Размер .torrent файла 6 KB


Размер: 4.66 GB
Хэш (hash) релиза: 217fabc940bb78295b7cfb558eac1aee78fab299
Подписка на обновления:

Торренты, похожие на Форсаж: Хоббс и Шоу Fast & Furious Presents: Hobbs & Shaw скачать торрент

Форум Название Автор Размер S L Добавлен
Зарубежные фильмы 2016-2018 (Новинки зарубежного кино) ·%· Форсаж: Хоббс и Шоу / Fast & Furious Presents: Hobbs & Shaw (2019) WEB-DLRip от Generalfilm | КПК | iTunes Galfimbul 542290665517 MB 0 0 1570461611

18:20

7-Окт-19

Зарубежные фильмы 2016-2018 (Новинки зарубежного кино) ·%· Форсаж: Хоббс и Шоу / Fast & Furious Presents: Hobbs & Shaw (2019) WEB-DLRip от Scarabey | iTunes Galfimbul 835024896796 MB 2 0 1569864613

20:30

30-Сен-19

Зарубежные фильмы 2016-2018 (Новинки зарубежного кино) ·%· Форсаж: Хоббс и Шоу / Fast & Furious Presents: Hobbs & Shaw (2019) WEB-DLRip от Scarabey | iTunes Galfimbul 15552389121.45 GB 0 0 1569775850

19:50

29-Сен-19

Зарубежные фильмы 2016-2018 (Новинки зарубежного кино) ·%· Форсаж: Хоббс и Шоу / Fast & Furious Presents: Hobbs & Shaw (2019) WEB-DLRip-AVC от ExKinoRay | Локализованная версия | iTunes Galfimbul 782311053746 MB 0 0 1569688212

19:30

28-Сен-19

Зарубежные фильмы 2016-2018 (Новинки зарубежного кино) ·%· Форсаж: Хоббс и Шоу / Fast & Furious Presents: Hobbs & Shaw (2019) WEB-DL 720p от селезень | iTunes Galfimbul 44906084484.18 GB 4 0 1569616209

23:30

27-Сен-19

Зарубежные фильмы 2016-2018 (Новинки зарубежного кино) ·%· Форсаж: Хоббс и Шоу / Fast & Furious Presents: Hobbs & Shaw (2019) WEB-DLRip от MegaPeer | Локализованная версия | Line Galfimbul 23496396802.19 GB 4 0 1569561007

08:10

27-Сен-19

Зарубежные фильмы 2016-2018 (Новинки зарубежного кино) ·%· Форсаж: Хоббс и Шоу / Fast & Furious Presents: Hobbs & Shaw (2019) WEB-DLRip от MegaPeer | Локализованная версия | Line Galfimbul 15705088001.46 GB 0 0 1569559812

07:50

27-Сен-19

Зарубежные фильмы 2016-2018 (Новинки зарубежного кино) ·%· Форсаж: Хоббс и Шоу / Fast & Furious Presents: Hobbs & Shaw (2019) WEB-DLRip-AVC от ExKinoRay | Локализованная версия | Line Galfimbul 21769723682.03 GB 0 0 1569558607

07:30

27-Сен-19

Зарубежные фильмы 2016-2018 (Новинки зарубежного кино) ·%· Форсаж: Хоббс и Шоу / Fast & Furious Presents: Hobbs & Shaw (2019) WEB-DLRip от MegaPeer | Локализованная версия | Line Galfimbul 15705088001.46 GB 0 0 1569534613

00:50

27-Сен-19

Зарубежные фильмы 2016-2018 (Новинки зарубежного кино) ·%· Форсаж: Хоббс и Шоу / Fast & Furious Presents: Hobbs & Shaw (2019) WEB-DL 1080p от селезень | Локализованная версия | Line Galfimbul 43151437854.02 GB 1 1 1569533411

00:30

27-Сен-19

Зарубежные фильмы 2016-2018 (Новинки зарубежного кино) ·%· Форсаж: Хоббс и Шоу / Fast & Furious Presents: Hobbs & Shaw (2019) HDRip 1080p | Трейлер Galfimbul 11756228161.09 GB 0 0 1549203007

17:10

3-Фев-19

Зарубежные фильмы 2016-2018 (Новинки зарубежного кино) ·%· Форсаж: Хоббс и Шоу / Fast & Furious Presents: Hobbs & Shaw (2019) WEB-DLRip от Scarabey | iTunes Galfimbul 23352156162.17 GB 2 0 1569689430

19:50

28-Сен-19

Еще никто не оставлял запись к записи скачать торрент Форсаж: Хоббс и Шоу Fast & Furious Presents: Hobbs & Shaw . Будь первым!

!Обратная связь