Скачать через торрент Люди в черном: Интернэшнл Men in Black International Фильм бесплатно в хорошем качестве torrent

Скачивайте на UnionPeer.org фильмы через торрент без регистрации. Новинки кино в хорошем качестве через торрент. На UnionPeer.org можно скачать через торрент фильмы 2014 и 2015 годов. Самые новые фильмы.

Скачать торрент Люди в черном: Интернэшнл Men in Black International бесплатно через .torrent фильм мультфильм сериал

Статистика раздачи
Размер:  5.98 GB   |    Зарегистрирован:  20 дней   |    .torrent скачан:  299 раз   |   
Раздают:  3   Качают:  1  
   
загрузка...
 
Автор Сообщение

Galfimbul

avatar Galfimbul


Люди в черном: Интернэшнл /Men in Black International

Год выхода: 2019
Жанр: Фантастика, боевик, комедия, приключения
Режиссер: Ф. Гэри Грей
В ролях: Тесса Томпсон, Крис Хемсворт, Кумэйл Нанджиани, Ребекка Фергюсон (II), Эмма Томпсон, Лиам Нисон, Рейф Сполл, Кайван Новак, Спенсер Уайлдинг, Марси Хэрриэл, Джесс Радомска, Виктория Фэйт, Аня Совински, Инни Клемонс, Стивен Уайт, Джефф Ким



О фильме: Люди в черном, тайная организация на страже покоя и безопасности Земли, уже не раз защищали нас от нападения отбросов Вселенной. На этот раз самая большая опасность для мирового сообщества, которой агентам предстоит противостоять - шпион в их рядах.

Страна: Великобритания, США
Студия: Columbia Pictures, Sony Pictures Entertainment (SPE), Amblin Entertainment
Продолжительность: 01:54:49
Перевод: Дублированный | Лицензия

Качество: BDRip 720p
Видео: MPEG-4 AVC, 1280x638, 6174 Kbit/s, 23.976 fps
Аудио #01: 48 kHz, AC3, 5.1, 640 Kbps | Дублированный | RUS |
Аудио #02: 48 kHz, AC3, 5.1, 640 Kbps | Оригинал | ENG |
Субтитры: Русские (Forced, full), английские

General
Unique ID : 275009198893935845117836646401124998396 (0xCEE4D859565345F6101854C73B7E1CFC)
Complete name : D:Video111Men.in.Black.International.2019.BDRip.720p.seleZen.mkv
Format : Matroska
Format version : Version 4
File size : 5.98 GiB
Duration : 1 h 54 min
Overall bit rate : 7 456 kb/s
Movie name : Men in Black: International 2019 from селезень
Encoded date : UTC 2019-10-01 08:41:28
Writing application : mkvmerge v22.0.0 ('At The End Of The World') 64-bit
Writing library : libebml v1.3.5 + libmatroska v1.4.8

Video
ID : 1
Format : AVC
Format/Info : Advanced Video Codec
Format profile : High@L4.1
Format settings : CABAC / 10 Ref Frames
Format settings, CABAC : Yes
Format settings, Reference : 10 frames
Codec ID : V_MPEG4/ISO/AVC
Duration : 1 h 54 min
Bit rate : 6 174 kb/s
Width : 1 280 pixels
Height : 638 pixels
Display aspect ratio : 2.006
Frame rate mode : Constant
Frame rate : 23.976 (24000/1001) FPS
Color space : YUV
Chroma subsampling : 4:2:0
Bit depth : 8 bits
Scan type : Progressive
Bits/(Pixel*Frame) : 0.315
Stream size : 4.95 GiB (83%)
Title : WiKi
Writing library : x264 core 129 r2245 bc13772
Encoding settings : cabac=1 / ref=10 / deblock=1:-3:-3 / analyse=0x3:0x133 / me=umh / subme=11 / psy=1 / psy_rd=1.05:0.10 / mixed_ref=1 / me_range=32 / chroma_me=1 / trellis=2 / 8x8dct=1 / cqm=0 / deadzone=21,11 / fast_pskip=0 / chroma_qp_offset=-3 / threads=12 / lookahead_threads=2 / sliced_threads=0 / nr=0 / decimate=1 / interlaced=0 / bluray_compat=0 / constrained_intra=0 / bframes=10 / b_pyramid=2 / b_adapt=2 / b_bias=0 / direct=3 / weightb=1 / open_gop=0 / weightp=2 / keyint=250 / keyint_min=23 / scenecut=40 / intra_refresh=0 / rc_lookahead=60 / rc=2pass / mbtree=1 / bitrate=6174 / ratetol=1.0 / qcomp=0.60 / qpmin=0 / qpmax=69 / qpstep=4 / cplxblur=20.0 / qblur=0.5 / ip_ratio=1.40 / aq=1:0.80
Language : English
Default : Yes
Forced : No

Audio #1
ID : 2
Format : AC-3
Format/Info : Audio Coding 3
Commercial name : Dolby Digital
Codec ID : A_AC3
Duration : 1 h 54 min
Bit rate mode : Constant
Bit rate : 640 kb/s
Channel(s) : 6 channels
Channel layout : L R C LFE Ls Rs
Sampling rate : 48.0 kHz
Frame rate : 31.250 FPS (1536 SPF)
Bit depth : 16 bits
Compression mode : Lossy
Stream size : 526 MiB (9%)
Title : Dub [License]
Language : Russian
Service kind : Complete Main
Default : Yes
Forced : Yes

Audio #2
ID : 3
Format : AC-3
Format/Info : Audio Coding 3
Commercial name : Dolby Digital
Codec ID : A_AC3
Duration : 1 h 54 min
Bit rate mode : Constant
Bit rate : 640 kb/s
Channel(s) : 6 channels
Channel layout : L R C LFE Ls Rs
Sampling rate : 48.0 kHz
Frame rate : 31.250 FPS (1536 SPF)
Bit depth : 16 bits
Compression mode : Lossy
Stream size : 526 MiB (9%)
Title : Original
Language : English
Service kind : Complete Main
Default : No
Forced : No

Text #1
ID : 4
Format : UTF-8
Codec ID : S_TEXT/UTF8
Codec ID/Info : UTF-8 Plain Text
Duration : 1 h 13 min
Bit rate : 0 b/s
Count of elements : 15
Stream size : 464 Bytes (0%)
Title : Forced
Language : Russian
Default : Yes
Forced : Yes

Text #2
ID : 5
Format : UTF-8
Codec ID : S_TEXT/UTF8
Codec ID/Info : UTF-8 Plain Text
Duration : 1 h 53 min
Bit rate : 86 b/s
Count of elements : 1441
Stream size : 72.1 KiB (0%)
Title : Full
Language : Russian
Default : No
Forced : No

Text #3
ID : 6
Format : UTF-8
Codec ID : S_TEXT/UTF8
Codec ID/Info : UTF-8 Plain Text
Duration : 1 h 43 min
Bit rate : 67 b/s
Count of elements : 1688
Stream size : 51.1 KiB (0%)
Title : Full
Language : English
Default : No
Forced : No

Text #4
ID : 7
Format : UTF-8
Codec ID : S_TEXT/UTF8
Codec ID/Info : UTF-8 Plain Text
Duration : 1 h 53 min
Bit rate : 70 b/s
Count of elements : 2016
Stream size : 58.6 KiB (0%)
Title : SDH
Language : English
Default : No
Forced : No

Menu
00:00:00.000 : en:Chapter 01
00:07:58.686 : en:Chapter 02
00:15:33.098 : en:Chapter 03
00:20:09.583 : en:Chapter 04
00:27:17.135 : en:Chapter 05
00:34:29.650 : en:Chapter 06
00:46:10.267 : en:Chapter 07
00:50:32.028 : en:Chapter 08
00:59:01.204 : en:Chapter 09
01:03:12.914 : en:Chapter 10
01:10:51.413 : en:Chapter 11
01:14:35.929 : en:Chapter 12
01:25:31.209 : en:Chapter 13
01:28:49.574 : en:Chapter 14
01:34:29.246 : en:Chapter 15
01:43:31.830 : en:Chapter 16
Источник http://BlaTor.org

Трекер:  [ 01-Окт-2019 11:50 ]

  

Скачать .torrent

Размер .torrent файла 8 KB


Размер: 5.98 GB
Хэш (hash) релиза: bb207e9d9af17ae0f7213f96769fc07168e22dcc
Подписка на обновления:

Торренты, похожие на Люди в черном: Интернэшнл Men in Black International скачать торрент

Форум Название Автор Размер S L Добавлен
Зарубежные фильмы 2016-2018 (Новинки зарубежного кино) ·%· Люди в черном: Интернэшнл / Men in Black International (2019) BDRemux 1080p | D, P | Лицензия Galfimbul 2544637127023.7 GB 2 0 1570411214

04:20

7-Окт-19

Зарубежные фильмы 2016-2018 (Новинки зарубежного кино) ·%· Люди в черном: Интернэшнл / Men in Black International (2019) UHD BDRip-HEVC 1440p | HDR | D | Лицензия Galfimbul 1786175788516.64 GB 0 0 1570261209

10:40

5-Окт-19

Зарубежные фильмы 2016-2018 (Новинки зарубежного кино) ·%· Люди в черном: Интернэшнл / Men in Black International (2019) UHD Blu-Ray 2160p от ExKinoRay | 4K | HDR | Лицензия Galfimbul 4816124769644.85 GB 0 0 1570025410

17:10

2-Окт-19

Зарубежные фильмы 2016-2018 (Новинки зарубежного кино) ·%· Люди в черном: Интернэшнл / Men in Black International (2019) UHD BDRemux 2160p от селезень | 4K | HDR | Лицензия Galfimbul 4364841379340.65 GB 0 0 1569923411

12:50

1-Окт-19

Зарубежные фильмы 2016-2018 (Новинки зарубежного кино) ·%· Люди в черном: Интернэшнл / Men in Black International (2019) BDRemux 1080p от селезень | Лицензия Galfimbul 2472807508123.03 GB 0 0 1569921012

12:10

1-Окт-19

Зарубежные фильмы 2016-2018 (Новинки зарубежного кино) ·%· Люди в черном: Интернэшнл / Men in Black International (2019) BDRip 1080p от селезень | Лицензия Galfimbul 1267316380011.8 GB 2 0 1569919824

11:50

1-Окт-19

Зарубежные фильмы 2016-2018 (Новинки зарубежного кино) ·%· Люди в черном: Интернэшнл / Men in Black International (2019) Blu-ray EUR 1080p | Лицензия Galfimbul 4322152467940.25 GB 0 0 1569916211

10:50

1-Окт-19

Зарубежные фильмы 2016-2018 (Новинки зарубежного кино) ·%· Люди в черном: Интернэшнл / Men in Black International (2019) TS 720р Galfimbul 32278863213.01 GB 0 0 1560404424

08:40

13-Июн-19

Еще никто не оставлял запись к записи скачать торрент Люди в черном: Интернэшнл Men in Black International . Будь первым!

!Обратная связь