Скачать через торрент Тайная жизнь домашних животных 2 The Secret Life of Pets 2 Фильм бесплатно в хорошем качестве torrent

Скачивайте на UnionPeer.org фильмы через торрент без регистрации. Новинки кино в хорошем качестве через торрент. На UnionPeer.org можно скачать через торрент фильмы 2014 и 2015 годов. Самые новые фильмы.

Скачать торрент Тайная жизнь домашних животных 2 The Secret Life of Pets 2 бесплатно через .torrent фильм мультфильм сериал

Статистика раздачи
Размер:  6.62 GB   |    Зарегистрирован:  19 дней   |    .torrent скачан:  80 раз   |   
Раздают:  1  
   
загрузка...
 
Автор Сообщение

Galfimbul

avatar Galfimbul



Тайная жизнь домашних животных 2
The Secret Life of Pets 2
«Обхохочешься»

Год выпуска: 2019
Страна: США, Франция, Япония (Illumination Entertainment, Universal Pictures)
Жанр: мультфильм, комедия, приключения, семейный
Продолжительность: 01:26:03

Перевод: Профессиональный дублированный (iTunes)

Режиссеры: Крис Рено, Джонатан дель Валь / Chris Renaud, Jonathan del Val
Роли озвучивали (дублировали):



Max - Пэттон Освальт (Сергей Смирнов)
Snowball - Кевин Харт (Илья Исаев)
Rooster - Харрисон Форд (Сергей Гармаш)
Duke - Эрик Стоунстрит (Юрий Брежнев)
Gidget - Дженни Слейт (Вероника Саркисова)
Daisy - Тиффани Хэддиш (Екатерина Варнава)
Chloe - Лэйк Белл (Анастасия Лапина)
Pops - Дэна Карви (Алексей Колган)
Mel - Бобби Мойнахан (Константин Карасик)
Buddy - Хэннибал Бёресс (Данил Щебланов)
Norman - Крис Рено (Диомид Виноградов)
Katie - Элли Кемпер (Ирина Киреева)
Chuck - Пит Холмс (Диомид Виноградов)
Sergei - Ник Кролл (Гарик Харламов)
Cotton - Шон Джамброун
Cat Lady - Мередит Сэленджер (Надежда Подъяпольская)
Lead Wolf / Skinny Cat - Майкл Битти (Владимир Паляница, Александр Скиданов)

Описание: Макс уезжает с хозяйкой, мужем и ребёнком в гости на ранчо. Тем временем, в городе у Снежка и Гиджет свои приключения.
Премьера: 24 мая 2019 (30 мая 2019)


Качество: BDRip (by Ash61)
Контейнер: MKV
Формат 3D: Half OverUnder / Вертикальная анаморфная стереопара
Порядок ракурсов: левый ракурс первый
Видео: AVC / 1920х1080p / 23,976 fps / 10.0 Mbps

Аудио:
#1 - Русский / AC3 / 48 KHz / 5.1 ch / 384 Kbps (Дубляж - iTunes)
#2 - Украинский / AC3 / 48 KHz / 2 ch / 192 Kbps (Дубляж) (спасибо Hurtom!)
#3 - Английский / AC3 / 48 KHz / 5.1 ch / 448 Kbps (Original - BD 3D HK)

Субтитры (SRT):
Вшитые (softsub):
#1 - Русские Форсированные [Ash61] (включены по умолчанию)
#2 - Русские Полные
#3 - Украинские Форсированные [Ash61]
#4 - English Full
#5 - English SDH

Внешние (UTF-8):
#1 - Русские Форсированные [Ash61] (включены по умолчанию)
#2 - Русские Полные
#3 - Украинские Форсированные [Ash61]
General
Unique ID : 248238367086470402720810174590213891348 (0xBAC0F86F86D5EE7DBE5029D6F63F2514)
Complete name : D:TheSecretLifeOfPets2(2019)3D-hOU(Ash61)iTunesTheSecretLifeOfPets2(2019)3D-hOU(Ash61)iTunes.mkv
Format : Matroska
Format version : Version 2
File size : 6.62 GiB
Duration : 1h 26mn
Overall bit rate : 11.0 Mbps
Movie name : Тайная жизнь домашних животных 2 / The Secret Life of Pets 2 (2019) in 3D
Encoded date : UTC 2019-10-02 09:54:20
Writing application : mkvmerge v5.8.0 ('No Sleep / Pillow') built on Sep 2 2012 15:37:04
Writing library : libebml v1.2.3 + libmatroska v1.3.0

Video
ID : 1
Format : AVC
Format/Info : Advanced Video Codec
Format profile : High@L4.1
Format settings, CABAC : Yes
Format settings, ReFrames : 4 frames
Codec ID : V_MPEG4/ISO/AVC
Duration : 1h 26mn
Bit rate : 10 000 Kbps
Width : 1 920 pixels
Height : 1 080 pixels
Display aspect ratio : 16:9
Frame rate mode : Constant
Frame rate : 23.976 (24000/1001) fps
Color space : YUV
Chroma subsampling : 4:2:0
Bit depth : 8 bits
Scan type : Progressive
Bits/(Pixel*Frame) : 0.201
Stream size : 5.88 GiB (89%)
Title : BDRip by Ash61
Writing library : x264 core 146 r2538 121396c
Encoding settings : cabac=1 / ref=4 / deblock=1:-3:-3 / analyse=0x3:0x113 / me=umh / subme=10 / psy=1 / psy_rd=1.00:0.00 / mixed_ref=1 / me_range=32 / chroma_me=1 / trellis=2 / 8x8dct=1 / cqm=0 / deadzone=21,11 / fast_pskip=0 / chroma_qp_offset=-2 / threads=12 / lookahead_threads=2 / sliced_threads=0 / nr=0 / decimate=0 / interlaced=0 / bluray_compat=0 / constrained_intra=0 / bframes=8 / b_pyramid=2 / b_adapt=2 / b_bias=0 / direct=3 / weightb=1 / open_gop=0 / weightp=2 / keyint=250 / keyint_min=23 / scenecut=40 / intra_refresh=0 / rc_lookahead=60 / rc=2pass / mbtree=0 / bitrate=10000 / ratetol=1.0 / qcomp=0.70 / qpmin=0 / qpmax=69 / qpstep=4 / cplxblur=20.0 / qblur=0.5 / vbv_maxrate=40000 / vbv_bufsize=30000 / nal_hrd=none / filler=0 / frame-packing=4 / ip_ratio=1.40 / pb_ratio=1.30 / aq=1:0.70
Language : English
Default : Yes
Forced : No

Audio #1
ID : 2
Format : AC-3
Format/Info : Audio Coding 3
Mode extension : CM (complete main)
Format settings, Endianness : Big
Codec ID : A_AC3
Duration : 1h 26mn
Bit rate mode : Constant
Bit rate : 384 Kbps
Channel(s) : 6 channels
Channel positions : Front: L C R, Side: L R, LFE
Sampling rate : 48.0 KHz
Frame rate : 31.250 fps (1536 spf)
Compression mode : Lossy
Stream size : 236 MiB (3%)
Title : Дубляж (iTunes)
Language : Russian
Default : Yes
Forced : No

Audio #2
ID : 3
Format : AC-3
Format/Info : Audio Coding 3
Mode extension : CM (complete main)
Format settings, Endianness : Big
Codec ID : A_AC3
Duration : 1h 26mn
Bit rate mode : Constant
Bit rate : 192 Kbps
Channel(s) : 2 channels
Channel positions : Front: L R
Sampling rate : 48.0 KHz
Frame rate : 31.250 fps (1536 spf)
Compression mode : Lossy
Stream size : 118 MiB (2%)
Title : Дубляж
Language : Ukrainian
Default : No
Forced : No

Audio #3
ID : 4
Format : AC-3
Format/Info : Audio Coding 3
Mode extension : CM (complete main)
Format settings, Endianness : Big
Codec ID : A_AC3
Duration : 1h 26mn
Bit rate mode : Constant
Bit rate : 448 Kbps
Channel(s) : 6 channels
Channel positions : Front: L C R, Side: L R, LFE
Sampling rate : 48.0 KHz
Frame rate : 31.250 fps (1536 spf)
Compression mode : Lossy
Stream size : 276 MiB (4%)
Title : Original (BD 3D)
Language : English
Default : No
Forced : No

Text #1
ID : 5
Format : UTF-8
Codec ID : S_TEXT/UTF8
Codec ID/Info : UTF-8 Plain Text
Title : Форсированные [Ash61]
Language : Russian
Default : Yes
Forced : No

Text #2
ID : 6
Format : UTF-8
Codec ID : S_TEXT/UTF8
Codec ID/Info : UTF-8 Plain Text
Title : Полные
Language : Russian
Default : No
Forced : No

Text #3
ID : 7
Format : UTF-8
Codec ID : S_TEXT/UTF8
Codec ID/Info : UTF-8 Plain Text
Title : Форсированные [Ash61]
Language : Ukrainian
Default : No
Forced : No

Text #4
ID : 8
Format : UTF-8
Codec ID : S_TEXT/UTF8
Codec ID/Info : UTF-8 Plain Text
Title : Full
Language : English
Default : No
Forced : No

Text #5
ID : 9
Format : UTF-8
Codec ID : S_TEXT/UTF8
Codec ID/Info : UTF-8 Plain Text
Title : SDH
Language : English
Default : No
Forced : No

Menu
00:00:00.000 : :1
00:05:34.543 : :2
00:10:07.816 : :3
00:13:26.305 : :4
00:16:39.790 : :5
00:19:56.946 : :6
00:24:10.074 : :7
00:28:15.736 : :8
00:30:54.269 : :9
00:35:15.113 : :10
00:39:55.977 : :11
00:45:47.328 : :12
00:49:51.822 : :13
00:56:54.995 : :14
00:58:35.220 : :15
01:02:48.932 : :16
01:07:16.616 : :17
01:12:48.823 : :18
01:15:21.809 : :19
01:18:10.019 : :20
Каталог фильмов, выходивших в 3Д, со ссылками (вер. 10.07.2019)
О форматах и методах просмотра 3D


Источник http://BlaTor.org

Трекер:  [ 02-Окт-2019 16:30 ]

  

Скачать .torrent

Размер .torrent файла 34 KB


Размер: 6.62 GB
Хэш (hash) релиза: 594efc4d364d99fd54d80fb933539fbd30a700d8
Подписка на обновления:

Торренты, похожие на Тайная жизнь домашних животных 2 The Secret Life of Pets 2 скачать торрент

Форум Название Автор Размер S L Добавлен
Мультфильмы 2016-2018 (Новинки мультфильмов) ·%· Тайная жизнь домашних животных 2 / The Secret Life of Pets 2 (2019) BDRip-AVC от OlLanDGroup | Лицензия Galfimbul 782072028746 MB 0 0 1571459436

07:30

19-Окт-19

Мультфильмы 2016-2018 (Новинки мультфильмов) ·%· Тайная жизнь домашних животных 2 / The Secret Life of Pets 2 (2019) HDRip от Generalfilm | КПК | Лицензия Galfimbul 342761714327 MB 0 0 1570718415

17:40

10-Окт-19

Мультфильмы 2016-2018 (Новинки мультфильмов) ·%· Тайная жизнь домашних животных 2 / The Secret Life of Pets 2 (2019) Blu-ray EUR 1080p | Лицензия Galfimbul 4535602837142.24 GB 3 0 1570608611

11:10

9-Окт-19

Мультфильмы 2016-2018 (Новинки мультфильмов) ·%· Тайная жизнь домашних животных 2 / The Secret Life of Pets 2 (2019) UHD BDRemux 2160p от селезень | 4K | HDR | Лицензия Galfimbul 4137035431138.53 GB 0 0 1570607420

10:50

9-Окт-19

Мультфильмы 2016-2018 (Новинки мультфильмов) ·%· Тайная жизнь домашних животных 2 / The Secret Life of Pets 2 (2019) BDRip 1080p от селезень | D, P | Лицензия Galfimbul 94643566638.81 GB 2 0 1570594216

07:10

9-Окт-19

Мультфильмы 2016-2018 (Новинки мультфильмов) ·%· Тайная жизнь домашних животных 2 / The Secret Life of Pets 2 (2019) BDRip 720p от селезень | D, P | Лицензия Galfimbul 52709110904.91 GB 2 0 1570594212

07:10

9-Окт-19

Мультфильмы 2016-2018 (Новинки мультфильмов) ·%· Тайная жизнь домашних животных 2 / The Secret Life of Pets 2 (2019) BDRemux 1080p от селезень | 3D-Video | iTunes Galfimbul 2808990924826.16 GB 0 0 1569925817

13:30

1-Окт-19

Мультфильмы 2016-2018 (Новинки мультфильмов) ·%· Тайная жизнь домашних животных 2 3Д / The Secret Life of Pets 2 3D (2019) Blu-ray EUR 1080p | 3D-Video | Лицензия Galfimbul 3232084787230.1 GB 0 0 1570607424

10:50

9-Окт-19

Еще никто не оставлял запись к записи скачать торрент Тайная жизнь домашних животных 2 The Secret Life of Pets 2 . Будь первым!

!Обратная связь