Скачать через торрент Последнее испытание Фильм бесплатно в хорошем качестве torrent

Скачивайте на UnionPeer.org фильмы через торрент без регистрации. Новинки кино в хорошем качестве через торрент. На UnionPeer.org можно скачать через торрент фильмы 2014 и 2015 годов. Самые новые фильмы.

Скачать торрент Последнее испытание бесплатно через .torrent фильм мультфильм сериал

Статистика раздачи
Размер:  1.45 GB   |    Зарегистрирован:  19 дней   |    .torrent скачан:  87 раз   |   
Раздают:  2  
   
загрузка...
 
Автор Сообщение

Galfimbul

avatar Galfimbul


Последнее испытание



[b]Год выхода:
2018
Жанр: Драма, боевик
Страна: Россия
Перевод: Не требуется
Продолжительность: 02:18:03
Режиссер: Алексей А. Петрухин
В ролях: Ирина Купченко, Ирина Алферова, Андрей Мерзликин, Анна Чурина, Елена Захарова, Иван Кокорин, Беслан Терекбаев, Алиса Гребенщикова, Михаил Евланов, Игорь Жижикин и др.

О фильме: Основано на реальных событиях. Фильм посвящен освобождению заложников в московском театральном центре на Дубровке осенью 2002 года. На сцене, где должна была пройти премьера мюзикла, разыгралась драма… Люди шли на праздник — веселый, яркий, а оказались лицом к лицу со смертью. Они, ставшие заложниками, сумевшие пройти страшное испытание, сохранив человеческое достоинство и мужество — обычные люди, ставшие героями…



Файл
Формат: AVI
Качество: WEB-DLRip
Видео: Xvid 73, 720x304, ~1304 kbps, 24,000 fps
Звук: русский, AC3, 2.0 ch, 48 kHz, 192 kbps | iTunes
Субтитры: нет
Общее
Полное имя : G:Torrent2PosledneeIspytanieWEBDLRip.avi
Формат : AVI
Формат/Информация : Audio Video Interleave
Профиль формата : OpenDML
Размер файла : 1,45 Гбайт
Продолжительность : 2 ч. 18 м.
Общий поток : 1508 Кбит/сек
Программа кодирования : XviD4PSP 6.0 / 53.6.0

Видео
Идентификатор : 0
Формат : MPEG-4 Visual
Профиль формата : Advanced Simple@L5
Настройки формата : BVOP1 / Custom Matrix
Параметр BVOP формата : 1
Параметр QPel формата : Нет
Параметр GMC формата : Без точки перехода
Параметр матрицы формата : Выборочная
Идентификатор кодека : XVID
Идентификатор кодека/Подсказка : XviD
Продолжительность : 2 ч. 18 м.
Битрейт : 1304 Кбит/сек
Ширина : 720 пикселей
Высота : 304 пикселя
Соотношение сторон : 2,35:1
Частота кадров : 24,000 кадра/сек
Цветовое пространство : YUV
Субдискретизация насыщенности : 4:2:0
Битовая глубина : 8 бит
Тип развёртки : Прогрессивная
Метод сжатия : С потерями
Бит/(Пиксели*Кадры) : 0.248
Размер потока : 1,26 Гбайт (86%)
Библиотека кодирования : XviD 73

Аудио
Идентификатор : 1
Формат : AC-3
Формат/Информация : Audio Coding 3
Параметр Endianness формата : Big
Идентификатор кодека : 2000
Продолжительность : 2 ч. 18 м.
Вид битрейта : Постоянный
Битрейт : 192 Кбит/сек
Каналы : 2 канала
Расположение каналов : Front: L R
Частота : 48,0 КГц
Частота кадров : 31,250 кадров/сек (1536 SPF)
Битовая глубина : 16 бит
Метод сжатия : С потерями
Размер потока : 190 Мбайт (13%)
Выравнивание : Соединение по промежуткам
Продолжительность промежутка : 32 мс. (0,77 видеокадр)
Рип и релиз от:
Источник http://BlaTor.org

Трекер:  [ 02-Окт-2019 17:20 ]

  

Скачать .torrent

Размер .torrent файла 15 KB


Размер: 1.45 GB
Хэш (hash) релиза: f8db73c2448a107406d7871a5f2a6d8e55a706d4
Подписка на обновления:

Торренты, похожие на Последнее испытание скачать торрент

Форум Название Автор Размер S L Добавлен
Российские фильмы 2016-2018 (Новинки русского кино) ·%· Последнее испытание (2018) WEB-DLRip от Generalfilm | КПК | iTunes Galfimbul 550219017525 MB 0 0 1570518613

10:10

8-Окт-19

Российские фильмы 2016-2018 (Новинки русского кино) ·%· Последнее испытание (2018) WEB-DLRip | iTunes Galfimbul 741294080707 MB 0 0 1570443008

13:10

7-Окт-19

Российские фильмы 2016-2018 (Новинки русского кино) ·%· Последнее испытание (2018) WEB-DLRip от Scarabey | iTunes Galfimbul 15521116161.45 GB 0 0 1570290609

18:50

5-Окт-19

Российские фильмы 2016-2018 (Новинки русского кино) ·%· Последнее испытание (2018) WEB-DLRip-AVC от Files-x | iTunes Galfimbul 21926652362.04 GB 3 0 1570204820

19:00

4-Окт-19

Российские фильмы 2016-2018 (Новинки русского кино) ·%· Последнее испытание (2018) WEB-DLRip-AVC от ExKinoRay | iTunes Galfimbul 11555841061.08 GB 1 1 1570080016

08:20

3-Окт-19

Российские фильмы 2016-2018 (Новинки русского кино) ·%· Последнее испытание (2018) WEB-DL 1080p | iTunes Galfimbul 51193749854.77 GB 0 0 1570026010

17:20

2-Окт-19

Азиатские фильмы ·· Последнее испытание Шаолиня / Деревянные люди Шаолиня / Shaolin Wooden Men / Shao Lin mu (Чи-Хва Чен / Chi-Hwa Chen) [1976, Китай, Гонконг, боевик, HDRip] MVO [Инис] Galfimbul 15709736961.46 GB 0 0 1411153226

22:00

19-Сен-14

Зарубежные фильмы до 2016 ·· Последнее испытание Шаолиня / Деревянные люди Шаолиня / Shaolin Wooden Men / Shao Lin mu ren xiang (Чи-Хва Чен / Chi-Hwa Chen) [1976 г., боевик, BDRip] MVO + Original Galfimbul 23417405442.18 GB 0 0 1377852313

11:45

30-Авг-13

Еще никто не оставлял запись к записи скачать торрент Последнее испытание . Будь первым!

!Обратная связь