Скачать через торрент Эбигейл Фильм бесплатно в хорошем качестве torrent

Скачивайте на UnionPeer.org фильмы через торрент без регистрации. Новинки кино в хорошем качестве через торрент. На UnionPeer.org можно скачать через торрент фильмы 2014 и 2015 годов. Самые новые фильмы.

Скачать торрент Эбигейл бесплатно через .torrent фильм мультфильм сериал

Статистика раздачи
Размер:  3.64 GB   |    Зарегистрирован:  18 дней   |    .torrent скачан:  190 раз   |   
Раздают:  4  
   
загрузка...
 
Автор Сообщение

Galfimbul

avatar Galfimbul


Название: Эбигейл
Год выхода: 2019
Жанр: приключения, фэнтези, семейный
Режиссер: Александр Богуславский
В ролях: Тинатин Далакишвили, Эдди Марсан, Артем Ткаченко, Равшана Куркова, Риналь Мухаметов, Глеб Бочков, Марта Тимофеева, Никита Тарасов, Ксения Кутепова, Петар Зекавица

О фильме:
Молодая девушка Эбигейл живет в городе, границы которого закрыли много лет назад из-за эпидемии загадочной болезни. Отец Эбби был одним из заболевших - и его забрали, когда ей было шесть лет. Пойдя наперекор властям, чтобы разыскать отца, Эбби узнает о том, что ее город на самом деле полон магии. И в ней самой пробуждаются необыкновенные магические способности...


Страна: Россия
Студия: KD Studios
Продолжительность: 01:46:16
Перевод: Не требуется | iTunes

Файл
Формат: MKV
Качество: WEB-DL 1080p
Видео: AVC/H.264, 1912x796 (2.40:1), 4522 kbps
Аудио: АС3, 6 ch, 48 kHz, 384 Kbps | Русский
Субтитры: Нет
Общее
Формат : Matroska
Версия формата : Version 4
Размер файла : 3,64 Гбайт
Продолжительность : 1 ч. 46 м.
Общий поток : 4908 Кбит/сек
Дата кодирования : UTC 2019-10-02 18:57:28
Программа кодирования : mkvmerge v8.3.0 ('Over the Horizon') 64bit
Библиотека кодирования : libebml v1.3.1 + libmatroska v1.4.2

Видео
Идентификатор : 1
Формат : AVC
Формат/Информация : Advanced Video Codec
Профиль формата : High@L4
Настройки формата : CABAC / 5 Ref Frames
Параметр CABAC формата : Да
Параметр RefFrames формата : 5 кадров
Идентификатор кодека : V_MPEG4/ISO/AVC
Продолжительность : 1 ч. 46 м.
Битрейт : 4522 Кбит/сек
Ширина : 1912 пикселей
Высота : 796 пикселей
Соотношение сторон : 2,40:1
Режим частоты кадров : Постоянный
Частота кадров : 23,976 (24000/1001) кадра/сек
Цветовое пространство : YUV
Субдискретизация насыщенности : 4:2:0
Битовая глубина : 8 бит
Тип развёртки : Прогрессивная
Бит/(Пиксели*Кадры) : 0.124
Размер потока : 3,36 Гбайт (92%)
Язык : English
Default : Да
Forced : Нет
Цветовой диапазон : Limited
Основные цвета : BT.709
Характеристики трансфера : BT.709
Коэффициенты матрицы : BT.709

Аудио
Идентификатор : 2
Формат : AC-3
Формат/Информация : Audio Coding 3
Коммерческое название : Dolby Digital
Идентификатор кодека : A_AC3
Продолжительность : 1 ч. 46 м.
Вид битрейта : Постоянный
Битрейт : 384 Кбит/сек
Каналы : 6 каналов
ChannelLayout : L R C LFE Ls Rs
Частота : 48,0 КГц
Частота кадров : 31,250 кадров/сек (1536 SPF)
Битовая глубина : 16 бит
Метод сжатия : С потерями
Размер потока : 292 Мбайт (8%)
Заголовок : iTunes
Язык : Russian
ServiceKind : Complete Main
Default : Да
Forced : Нет

Меню
00:00:00.000 : ru:1
00:03:49.000 : ru:2
00:13:26.000 : ru:3
00:22:22.000 : ru:4
00:30:47.000 : ru:5
00:39:40.000 : ru:6
00:50:22.000 : ru:7
01:00:15.000 : ru:8
01:10:39.000 : ru:9
01:21:18.000 : ru:10
01:30:58.000 : ru:11
01:42:38.000 : ru:12
Источник http://BlaTor.org

Трекер:  [ 03-Окт-2019 11:20 ]

  

Скачать .torrent

Размер .torrent файла 18 KB


Размер: 3.64 GB
Хэш (hash) релиза: 341750e32ae88cfba94bebf2a2cc04599b174c50
Подписка на обновления:

Торренты, похожие на Эбигейл скачать торрент

Форум Название Автор Размер S L Добавлен
Российские фильмы 2016-2018 (Новинки русского кино) ·%· Эбигейл (2019) WEB-DLRip от ExKinoRay | iTunes Galfimbul 785029120749 MB 0 0 1571667017

17:10

21-Окт-19

Российские фильмы 2016-2018 (Новинки русского кино) ·%· Эбигейл (2019) WEB-DLRip от Scarabey | iTunes Galfimbul 15514951681.44 GB 3 0 1570555241

20:20

8-Окт-19

Российские фильмы 2016-2018 (Новинки русского кино) ·%· Эбигейл (2019) WEB-DLRip от Generalfilm | КПК | iTunes Galfimbul 422523085403 MB 0 0 1570469414

20:30

7-Окт-19

Российские фильмы 2016-2018 (Новинки русского кино) ·%· Эбигейл (2019) WEB-DLRip-AVC от ExKinoRay | iTunes Galfimbul 781691822745 MB 0 0 1570342216

09:10

6-Окт-19

Российские фильмы 2016-2018 (Новинки русского кино) ·%· Эбигейл (2019) WEB-DLRip-AVC от OlLanDGroup | iTunes Galfimbul 17051322611.59 GB 2 0 1570093215

12:00

3-Окт-19

Российские фильмы 2016-2018 (Новинки русского кино) ·%· Эбигейл (2019) WEB-DLRip от MegaPeer | iTunes Galfimbul 15678504961.46 GB 0 0 1570045217

22:40

2-Окт-19

Спорт ·· Australian Open 2017. Микст. 1/2 Финала. Крис Гуччионе, Элина Свитолина (Австралия, Украина) - Эбигейл Спирс, Хуан-Себастьян Кабаль (США, Колумбия). Svitolina, Guccione - Spears, Cabal / Eurosport HD [27.01.2017, Теннис, 720p, H.264, RU, EN, IPTV] Galfimbul 19922967241.86 GB 0 0 1485584532

09:22

28-Янв-17

Еще никто не оставлял запись к записи скачать торрент Эбигейл . Будь первым!

!Обратная связь