Скачать через торрент Али, рули! Stuber Фильм бесплатно в хорошем качестве torrent

Скачивайте на UnionPeer.org фильмы через торрент без регистрации. Новинки кино в хорошем качестве через торрент. На UnionPeer.org можно скачать через торрент фильмы 2014 и 2015 годов. Самые новые фильмы.

Скачать торрент Али, рули! Stuber бесплатно через .torrent фильм мультфильм сериал

Статистика раздачи
Размер:  6.81 GB   |    Зарегистрирован:  1 месяц 12 дней   |    .torrent скачан:  98 раз   |   
Раздают:  1  
 

Скачать Али, рули! / Stuber (2019) BDRip 1080p | iTunes через torrent

 
загрузка...
 
Автор Сообщение

Galfimbul

avatar Galfimbul


Али, рули! /Stuber

Год выхода: 2019
Жанр: Боевик, триллер, комедия, криминал
Режиссер: Майкл Даус
В ролях: Кумэйл Нанджиани, Дэйв Батиста, Мира Сорвино, Натали Моралес, Ико Уайс, Бетти Гилпин, Карен Гиллан, Джимми Татро, Стив Хоуи, Рене Моран, Эймин Джозеф, Кристин Хорн, Джаред Логан, Кайл Зинглер, Мелоди Пэн, Роберт Харви, Ной Бенжамин, Дженнифер Маршалл, Эмбер Чардэй Робинсон, Фернандо Мартинес, Майкл Эндосо, Скотт Лоуренс, Джошуа Микель, Джейсон Лигон

О фильме:
Скромный водитель Uber по имени Стю подбирает пассажира, который оказывается полицейским, идущим по следу жестокого убийцы. Таксист даже представить не мог, что теперь его ждет мучительное испытание, в ходе которого он будет отчаянно пытаться сохранить здравомыслие, жизнь и пятизвездочный рейтинг в приложении.



Страна: США
Студия: 20th Century Fox Film Corporation
Продолжительность: 01:33:24
Перевод: Дублированный | iTunes

Файл
Кодек: x.264
Качество: BDRip 1080p | Stuber.2019.1080p.BluRay.x264-DRONES
Видео: MPEG-4 AVC, 8543 Kбит/с, 1920x808, 23.976 кадр/с
Звук: ? Без Рекламы!
Аудио #1: Русский (АС3, 6 ch, 384 Кбит/с, 48.0 KHz) Профессиональный (дублированный) iTunes
Аудио #2: Английский (DTS, 6 ch, 1509 Кбит/с, 48.0 KHz)
Субтитры: Русские (Forced, Full), английские (Full, SDH)
Трейлер
Источник: Stuber.2019.1080p.BluRay.x264-DRONES
General
Unique ID : 180884936295936182884124434675929164681 (0x88152BE96567E16FA8D3A4FDFB8FAB89)
Complete name : Stuber.2019.BDRip.1080p.mkv
Format : Matroska
Format version : Version 4
File size : 6.81 GiB
Duration : 1 h 33 min
Overall bit rate : 10.4 Mb/s
Encoded date : UTC 2019-10-05 09:34:17
Writing application : mkvmerge v7.1.0 ('Good Love') 64bit built on Jul 27 2014 13:06:55
Writing library : libebml v1.3.0 + libmatroska v1.4.1

Video
ID : 1
Format : AVC
Format/Info : Advanced Video Codec
Format profile : High@L4.1
Format settings : CABAC / 5 Ref Frames
Format settings, CABAC : Yes
Format settings, Reference fra : 5 frames
Codec ID : V_MPEG4/ISO/AVC
Duration : 1 h 33 min
Bit rate : 8 543 kb/s
Width : 1 920 pixels
Height : 808 pixels
Display aspect ratio : 2.40:1
Frame rate mode : Constant
Frame rate : 23.976 (24000/1001) FPS
Color space : YUV
Chroma subsampling : 4:2:0
Bit depth : 8 bits
Scan type : Progressive
Bits/(Pixel*Frame) : 0.230
Stream size : 5.57 GiB (82%)
Writing library : x264 core 158 r2984 3759fcb
Encoding settings : cabac=1 / ref=5 / deblock=1:-3:-3 / analyse=0x3:0x113 / me=umh / subme=8 / psy=1 / psy_rd=1.00:0.00 / mixed_ref=1 / me_range=16 / chroma_me=1 / trellis=1 / 8x8dct=1 / cqm=0 / deadzone=21,11 / fast_pskip=1 / chroma_qp_offset=-2 / threads=25 / lookahead_threads=4 / sliced_threads=0 / nr=0 / decimate=1 / interlaced=0 / bluray_compat=0 / constrained_intra=0 / bframes=3 / b_pyramid=2 / b_adapt=1 / b_bias=0 / direct=3 / weightb=1 / open_gop=0 / weightp=2 / keyint=250 / keyint_min=23 / scenecut=40 / intra_refresh=0 / rc_lookahead=50 / rc=2pass / mbtree=1 / bitrate=8543 / ratetol=1.0 / qcomp=0.60 / qpmin=0 / qpmax=69 / qpstep=4 / cplxblur=20.0 / qblur=0.5 / ip_ratio=1.40 / aq=1:1.00
Language : English
Default : Yes
Forced : No

Audio #1
ID : 2
Format : AC-3
Format/Info : Audio Coding 3
Commercial name : Dolby Digital
Codec ID : A_AC3
Duration : 1 h 33 min
Bit rate mode : Constant
Bit rate : 384 kb/s
Channel(s) : 6 channels
Channel layout : L R C LFE Ls Rs
Sampling rate : 48.0 kHz
Frame rate : 31.250 FPS (1536 SPF)
Bit depth : 16 bits
Compression mode : Lossy
Stream size : 256 MiB (4%)
Title : DUB | iTunes
Language : Russian
Service kind : Complete Main
Default : Yes
Forced : No

Audio #2
ID : 3
Format : DTS
Format/Info : Digital Theater Systems
Codec ID : A_DTS
Duration : 1 h 33 min
Bit rate mode : Constant
Bit rate : 1 509 kb/s
Channel(s) : 6 channels
Channel layout : C L R Ls Rs LFE
Sampling rate : 48.0 kHz
Frame rate : 93.750 FPS (512 SPF)
Bit depth : 24 bits
Compression mode : Lossy
Stream size : 1 008 MiB (14%)
Language : English
Default : No
Forced : No

Text #1
ID : 4
Format : UTF-8
Codec ID : S_TEXT/UTF8
Codec ID/Info : UTF-8 Plain Text
Duration : 1 h 27 min
Bit rate : 1 b/s
Count of elements : 24
Stream size : 807 Bytes (0%)
Title : forced
Language : Russian
Default : Yes
Forced : No

Text #2
ID : 5
Format : UTF-8
Codec ID : S_TEXT/UTF8
Codec ID/Info : UTF-8 Plain Text
Duration : 1 h 32 min
Bit rate : 113 b/s
Count of elements : 1819
Stream size : 77.3 KiB (0%)
Title : Full
Language : Russian
Default : No
Forced : No

Text #3
ID : 6
Format : UTF-8
Codec ID : S_TEXT/UTF8
Codec ID/Info : UTF-8 Plain Text
Duration : 1 h 32 min
Bit rate : 79 b/s
Count of elements : 1969
Stream size : 53.8 KiB (0%)
Title : Full
Language : English
Default : No
Forced : No

Text #4
ID : 7
Format : UTF-8
Codec ID : S_TEXT/UTF8
Codec ID/Info : UTF-8 Plain Text
Duration : 1 h 32 min
Bit rate : 85 b/s
Count of elements : 2154
Stream size : 58.2 KiB (0%)
Title : SDH
Language : English
Default : No
Forced : No

Menu
00:00:00.000 : en:00:00:00.000
00:05:52.435 : en:00:05:52.435
00:09:57.222 : en:00:09:57.222
00:14:14.854 : en:00:14:14.854
00:17:30.675 : en:00:17:30.675
00:19:46.310 : en:00:19:46.310
00:22:40.276 : en:00:22:40.276
00:27:33.402 : en:00:27:33.402
00:31:30.889 : en:00:31:30.889
00:33:19.247 : en:00:33:19.247
00:35:39.888 : en:00:35:39.888
00:40:13.036 : en:00:40:13.036
00:45:05.202 : en:00:45:05.202
00:49:10.114 : en:00:49:10.114
00:52:36.987 : en:00:52:36.987
00:56:46.111 : en:00:56:46.111
01:01:54.252 : en:01:01:54.252
01:05:43.648 : en:01:05:43.648
01:08:37.196 : en:01:08:37.196
01:13:31.157 : en:01:13:31.157
01:16:44.517 : en:01:16:44.517
01:19:07.534 : en:01:19:07.534
01:23:54.780 : en:01:23:54.780
01:27:49.598 : en:01:27:49.598
Источник http://BlaTor.org

Трекер:  [ 05-Окт-2019 13:20 ]

  

Скачать .torrent

Размер .torrent файла 17 KB


Размер: 6.81 GB
Хэш (hash) релиза: 266255538097055c361b434cd84f8641fdd7e43d
Подписка на обновления:

Торренты, похожие на Али, рули! Stuber скачать торрент

Форум Название Автор Размер S L Добавлен
Зарубежные фильмы 2016-2018 (Новинки зарубежного кино) ·%· Али, рули! / Stuber (2019) BDRip-AVC от HELLYWOOD | iTunes Galfimbul 23002166952.14 GB 0 0 1572403222

05:40

30-Окт-19

Зарубежные фильмы 2016-2018 (Новинки зарубежного кино) ·%· Али, рули! / Stuber (2019) BDRip-HEVC 1080p | iTunes Galfimbul 36191350603.37 GB 0 0 1571859619

22:40

23-Окт-19

Зарубежные фильмы 2016-2018 (Новинки зарубежного кино) ·%· Али, рули! / Stuber (2019) BDRip от Twister & ExKinoRay | iTunes Galfimbul 15227982461.42 GB 0 0 1570861209

09:20

12-Окт-19

Зарубежные фильмы 2016-2018 (Новинки зарубежного кино) ·%· Али, рули! / Stuber (2019) HDRip от Scarabey | iTunes Galfimbul 15056629761.4 GB 0 0 1570813220

20:00

11-Окт-19

Зарубежные фильмы 2016-2018 (Новинки зарубежного кино) ·%· Али, рули! / Stuber (2019) HDRip-AVC от ExKinoRay | iTunes Galfimbul 781919405746 MB 0 0 1570684811

08:20

10-Окт-19

Зарубежные фильмы 2016-2018 (Новинки зарубежного кино) ·%· Али, рули! / Stuber (2019) BDRip-AVC от OlLanDGroup | iTunes Galfimbul 18622184361.73 GB 0 0 1570669218

04:00

10-Окт-19

Зарубежные фильмы 2016-2018 (Новинки зарубежного кино) ·%· Али, рули! / Stuber (2019) BDRip 720p от селезень | iTunes Galfimbul 42431192373.95 GB 2 0 1570656018

00:20

10-Окт-19

Зарубежные фильмы 2016-2018 (Новинки зарубежного кино) ·%· Али, рули! / Stuber (2019) BDRip от MegaPeer | iTunes Galfimbul 15235249851.42 GB 0 0 1570641612

20:20

9-Окт-19

Зарубежные фильмы 2016-2018 (Новинки зарубежного кино) ·%· Али, рули! / Stuber (2019) BDRemux 1080p от селезень | iTunes Galfimbul 2473314585023.03 GB 0 0 1570633214

18:00

9-Окт-19

Зарубежные фильмы 2016-2018 (Новинки зарубежного кино) ·%· Али, рули! / Stuber (2019) UHD BDRip-HEVC 2160p | 4K | SDR | iTunes Galfimbul 2437732672122.7 GB 0 0 1570489212

02:00

8-Окт-19

Зарубежные фильмы 2016-2018 (Новинки зарубежного кино) ·%· Али, рули! / Stuber (2019) UHD BDRip-HEVC 2160p | 4K | HDR | iTunes Galfimbul 1231420410811.47 GB 2 0 1570471211

21:00

7-Окт-19

Зарубежные фильмы 2016-2018 (Новинки зарубежного кино) ·%· Али, рули! / Stuber (2019) BDRip 1080p от селезень | iTunes Galfimbul 90434029848.42 GB 0 0 1570431615

10:00

7-Окт-19

Зарубежные фильмы 2016-2018 (Новинки зарубежного кино) ·%· Али, рули! / Stuber (2019) UHD BDRip 1080p от селезень | iTunes Galfimbul 82498068267.68 GB 0 0 1570326015

04:40

6-Окт-19

Зарубежные фильмы 2016-2018 (Новинки зарубежного кино) ·%· Али, рули! / Stuber (2019) UHD BDRemux 2160p от селезень | 4K | HDR | iTunes Galfimbul 5007591183346.64 GB 0 0 1570288813

18:20

5-Окт-19

Зарубежные фильмы 2016-2018 (Новинки зарубежного кино) ·%· Али, рули! / Stuber (2019) BDRip 1080p от селезень | iTunes Galfimbul 88775710718.27 GB 0 0 1570284010

17:00

5-Окт-19

Зарубежные фильмы 2016-2018 (Новинки зарубежного кино) ·%· Али, рули! / Stuber (2019) WEB-DL 720p | iTunes Galfimbul 27989330712.61 GB 2 0 1570205408

19:10

4-Окт-19

Зарубежные фильмы 2016-2018 (Новинки зарубежного кино) ·%· Али, рули! / Stuber (2019) WEB-DL 1080p | D | iTunes Galfimbul 53769522065.01 GB 2 0 1570198840

17:20

4-Окт-19

Зарубежные фильмы 2016-2018 (Новинки зарубежного кино) ·%· Али, рули! / Stuber (2019) WEB-DL 1080p | iTunes Galfimbul 54659166085.09 GB 0 0 1570198832

17:20

4-Окт-19

Зарубежные фильмы 2016-2018 (Новинки зарубежного кино) ·%· Али, рули! / Stuber (2019) WEB-DLRip | iTuens Galfimbul 15631643611.46 GB 0 0 1570173607

10:20

4-Окт-19

Еще никто не оставлял запись к записи скачать торрент Али, рули! Stuber . Будь первым!

!Обратная связь