Скачать через торрент В Кейптаунском порту… Фильм бесплатно в хорошем качестве torrent

Скачивайте на UnionPeer.org фильмы через торрент без регистрации. Новинки кино в хорошем качестве через торрент. На UnionPeer.org можно скачать через торрент фильмы 2014 и 2015 годов. Самые новые фильмы.

Скачать торрент В Кейптаунском порту… бесплатно через .torrent фильм мультфильм сериал

Статистика раздачи
Размер:  1.4 GB   |    Зарегистрирован:  13 дней   |    .torrent скачан:  50 раз   |   
Раздают:  1  
   
загрузка...
 
Автор Сообщение

Galfimbul

avatar Galfimbul


В Кейптаунском порту…


Год выпуска: 2019
Страна: Россия
Производство: Renovatio Entertainment
Жанр: Драма

Режиссёр: Александр Велединский
В ролях: Евгений Ткачук, Владимир Стеклов, Александр Робак, Юрий Кузнецов, Сергей Сосновский, Светлана Хомич, Ангелина Притуманова, Анфиса Черных, Виталий Кищенко, Юрий Ваксман

Перевод: Оригинал | [iTunes]
Субтитры: Нет
Реклама: Отсутствует

Описание: Моряк, Пахан и Салажонок. Они встретились лишь однажды летом 1945 года на Дальнем Востоке с оружием в руках и с серьезными намерениями. Все закончилось перестрелкой, и каждый из участников уверен, что убил двух других. Однако судьба подарила всем им долгую насыщенную событиями жизнь. Пройдет более полувека, и в один из дней в разных точках Земли произойдут события, связанные с той роковой встречей лета 1945-го.


Качество: WEB-DLRip-AVC | iTunes Version |
Продолжительность: 01:42:37

Формат: MKV
Видео кодек: MPEG-4 AVC
Аудио кодек: AC3
Видео: 1024x428 (2.40:1), 25,000 fps, x264 ~1 756 kbps avg, 0.160 bit/pixel
Аудио: 48 kHz, AC3 Dolby Digital, 2/0 (L,R) ch, ~192.00 kbps avg | RUS (iTunes)

Дата премьеры (мир): 29 августа 2019, «Парадиз»
Дата премьеры (РФ):
Цифровой релиз:
Общее
Уникальный идентификатор : 96482568081333586544186260350448099466 (0x4895DDDFEA3EB651C893D2726BF2E08A)
Полное имя : F:OlLanDGroupV.Keiptaunskom.Portu.2019.WEB-DLRip(AVC).OllanDGroup.mkv
Формат : Matroska
Версия формата : Version 4 / Version 2
Размер файла : 1,40 Гбайт
Продолжительность : 1 ч. 42 м.
Общий поток : 1948 Кбит/сек
Название фильма : В Кейптаунском порту… (2019) #TorpedoUK#
Дата кодирования : UTC 2019-10-08 16:39:48
Программа кодирования : mkvmerge v29.0.0 ('Like It Or Not') 64-bit
Библиотека кодирования : libebml v1.3.6 + libmatroska v1.4.9

Видео
Идентификатор : 1
Формат : AVC
Формат/Информация : Advanced Video Codec
Профиль формата : High@L4.1
Параметр CABAC формата : Да
Параметр ReFrames формата : 10 кадров
Идентификатор кодека : V_MPEG4/ISO/AVC
Продолжительность : 1 ч. 42 м.
Битрейт : 1756 Кбит/сек
Ширина : 1024 пикселя
Высота : 428 пикселей
Соотношение сторон : 2,40:1
Режим частоты кадров : Постоянный
Частота кадров : 25,000 кадров/сек
Цветовое пространство : YUV
Субдискретизация насыщенности : 4:2:0
Битовая глубина : 8 бит
Тип развёртки : Прогрессивная
Бит/(Пиксели*Кадры) : 0.160
Размер потока : 1,26 Гбайт (90%)
Библиотека кодирования : x264 core 146 r2538 121396c
Настройки программы : cabac=1 / ref=10 / deblock=1:-3:-3 / analyse=0x3:0x113 / me=umh / subme=10 / psy=1 / psy_rd=0.97:0.05 / mixed_ref=1 / me_range=48 / chroma_me=1 / trellis=2 / 8x8dct=1 / cqm=0 / deadzone=21,11 / fast_pskip=1 / chroma_qp_offset=-6 / threads=6 / lookahead_threads=1 / sliced_threads=0 / nr=0 / decimate=1 / interlaced=0 / bluray_compat=0 / constrained_intra=0 / bframes=11 / b_pyramid=2 / b_adapt=2 / b_bias=0 / direct=3 / weightb=1 / open_gop=0 / weightp=2 / keyint=250 / keyint_min=25 / scenecut=40 / intra_refresh=0 / rc_lookahead=40 / rc=2pass / mbtree=0 / bitrate=1756 / ratetol=1.0 / qcomp=0.60 / qpmin=0 / qpmax=69 / qpstep=4 / cplxblur=20.0 / qblur=0.5 / vbv_maxrate=50000 / vbv_bufsize=62500 / nal_hrd=none / filler=0 / ip_ratio=1.40 / pb_ratio=1.30 / aq=1:1.00
Язык : English
Default : Да
Forced : Нет

Аудио
Идентификатор : 2
Формат : AC-3
Формат/Информация : Audio Coding 3
Расширение режима : CM (complete main)
Параметр Endianness формата : Big
Идентификатор кодека : A_AC3
Продолжительность : 1 ч. 42 м.
Вид битрейта : Постоянный
Битрейт : 192 Кбит/сек
Каналы : 2 канала
Расположение каналов : Front: L R
Частота : 48,0 КГц
Частота кадров : 31,250 кадров/сек (1536 spf)
Битовая глубина : 16 бит
Метод сжатия : С потерями
Размер потока : 141 Мбайт (10%)
Заголовок : [iTunes]
Язык : Russian
Default : Да
Forced : Нет

Меню
00:00:00.000 : en:Глава 1
00:08:36.400 : en:Глава 2
00:17:37.240 : en:Глава 3
00:25:44.760 : en:Глава 4
00:34:04.920 : en:Глава 5
00:42:19.440 : en:Глава 6
00:50:27.760 : en:Глава 7
00:58:32.399 : en:Глава 8
01:07:20.959 : en:Глава 9
01:15:39.198 : en:Глава 10
01:24:01.038 : en:Глава 11
01:32:27.998 : en:Глава 12
Источник http://BlaTor.org

Трекер:  [ 08-Окт-2019 20:00 ]

  

Скачать .torrent

Размер .torrent файла 14 KB


Размер: 1.4 GB
Хэш (hash) релиза: d41feb2d65f60d2956c1a6587ca7537a45ea9acb
Подписка на обновления:

Еще никто не оставлял запись к записи скачать торрент В Кейптаунском порту… . Будь первым!

!Обратная связь