Скачать порно через торрент Hataraku Otona no Ren`ai Jijou The Animation UnionPeer.org бесплатно онлайн HD качество

Скачать новое порно 2015, 2014 новинки через торрент UnionPeer.org

Порно торрент бесплатно ЮнионПир.орг

Статистика раздачи
Размер:  171 MB   |    Зарегистрирован:  2 года 7 месяцев   |    .torrent скачан:  466 раз   |   
Раздают:  1  
 

Скачать Hataraku Otona no Ren`ai Jijou The Animation (Araki Hideki, Office 8-ban, PinkPineapple) (ep. 1 of 1) [cen] [2016, big breast, paizuri, office lady, outdoor, maid, toys, creampie, DVDRip] [jap / eng / chi] через torrent

 
 
Автор Сообщение

Galfimbul

avatar Galfimbul


Hataraku Otona no Ren`ai Jijou The Animation
働くオトナの恋愛事情 THE ANIMATION

Год выпуска: 2016
Жанр: big breast, paizuri, office lady, outdoor, maid, toys, creampie
Серии: ep. 1 of 1
Продолжительность: 27mn
Цензура: Есть во всех файлах

Озвучка: Японская оригинальная
Субтитры: Английские [HH] внешние ASS
Субтитры: Китайские [Maho.sub] внешние ASS

Режиссёр: Araki Hideki
Автор оригинала: Akabeisoft 3
Студия: Office 8-ban, PinkPineapple

Описание: A bunch of short stories where couples have sex in an office, at a park, at a maid cafe.

anidb

Качество видео: DVDrip [торрент иваниваныч]
Разрешение видео: 480p
Формат видео: MKV
Видео: 720-478, 16-9, 23.976 fps, AVC, 678 kbps
Аудио: jpn, AC-3, Stereo, 48.0 KHz, 192 kbps
General
Unique ID : 251011699462452271750106043887234438247 (0xBCD71847581FC1F7BA71B35B4B8DD467)
Complete name : Hataraku_otona_no_ren`ai_jijou_[Galan_rus_raw][353E03F9].mkv
Format : Matroska
Format version : Version 2
File size : 171 MiB
Duration : 26 min 53 s
Overall bit rate : 888 kb/s
Movie name : рип торрент иваниваныч
Encoded date : UTC 2019-10-08 22:01:47
Writing application : mkvmerge v7.8.0 (''River Man'') 32bit built on Apr 3 2015 12:11:22
Writing library : libebml v1.3.1 + libmatroska v1.4.2

Video
ID : 1
Format : AVC
Format/Info : Advanced Video Codec
Format profile : High 10@L4.1
Format settings : CABAC / 8 Ref Frames
Format settings, CABAC : Yes
Format settings, RefFrames : 8 frames
Codec ID : V_MPEG4/ISO/AVC
Duration : 26 min 53 s
Bit rate : 678 kb/s
Width : 720 pixels
Height : 478 pixels
Display aspect ratio : 16:9
Frame rate mode : Constant
Frame rate : 23.976 (24000/1001) FPS
Color space : YUV
Chroma subsampling : 4:2:0
Bit depth : 10 bits
Scan type : Progressive
Bits/(Pixel*Frame) : 0.082
Stream size : 130 MiB (76%)
Title : Hataraku otona no ren`ai jijou
Writing library : x264 core 152 r2851kMod ba24899
Encoding settings : cabac=1 / ref=8 / deblock=1:-1:-1 / analyse=0x3:0x133 / me=tesa / subme=9 / psy=1 / fade_compensate=0.00 / psy_rd=0.90:0.00 / mixed_ref=1 / me_range=24 / chroma_me=1 / trellis=2 / 8x8dct=1 / cqm=0 / deadzone=21,11 / fast_pskip=1 / chroma_qp_offset=-2 / threads=12 / lookahead_threads=2 / sliced_threads=0 / nr=0 / decimate=0 / interlaced=0 / bluray_compat=0 / constrained_intra=0 / bframes=9 / b_pyramid=2 / b_adapt=2 / b_bias=0 / direct=3 / weightb=1 / open_gop=0 / weightp=2 / keyint=240 / keyint_min=24 / scenecut=40 / intra_refresh=0 / rc=crf / mbtree=0 / crf=16.0000 / qcomp=0.75 / qpmin=0 / qpmax=38 / qpstep=4 / ip_ratio=1.40 / pb_ratio=1.30 / aq=1:0.90
Language : Japanese
Default : Yes
Forced : No

Audio
ID : 2
Format : AC-3
Format/Info : Audio Coding 3
Commercial name : Dolby Digital
Codec ID : A_AC3
Duration : 26 min 53 s
Bit rate mode : Constant
Bit rate : 192 kb/s
Channel(s) : 2 channels
Channel layout : L R
Sampling rate : 48.0 kHz
Frame rate : 31.250 FPS (1536 SPF)
Bit depth : 16 bits
Compression mode : Lossy
Stream size : 36.9 MiB (22%)
Title : jpn
Language : Japanese
Service kind : Complete Main
Default : Yes
Forced : No

Menu
00:00:00.000 : en:Chapter 1
00:01:36.233 : en:Chapter 2
00:08:17.000 : en:Chapter 3
00:09:54.734 : en:Chapter 4
00:16:18.434 : en:Chapter 5
00:18:30.667 : en:Chapter 6
00:23:53.667 : en:Chapter 7
00:25:04.601 : en:Chapter 8
От vattok – лучше видео, сравнение, сравнение с двд.


Внимание! AdBlock блокирует показ скриншотов, все вопросы к разработчикам )))
Трекер:  [ 09-Окт-2019 01:30 ]

  

Скачать .torrent

Размер .torrent файла 14 KB


Размер: 171 MB
Хэш (hash) релиза: c5c783ad486dc8ee34c6b7f0d20adaa0fe45b1ae

Еще никто не оставлял запись к записи скачать торрент Hataraku Otona no Ren`ai Jijou The Animation . Будь первым!

!Обратная связь