Скачать через торрент Страшные истории для рассказа в темноте Scary Stories to Tell in the Dark Фильм бесплатно в хорошем качестве torrent

Скачивайте на UnionPeer.org фильмы через торрент без регистрации. Новинки кино в хорошем качестве через торрент. На UnionPeer.org можно скачать через торрент фильмы 2014 и 2015 годов. Самые новые фильмы.

Скачать торрент Страшные истории для рассказа в темноте Scary Stories to Tell in the Dark бесплатно через .torrent фильм мультфильм сериал

Статистика раздачи
Размер:  1.63 GB   |    Зарегистрирован:  4 года 6 месяцев   |    .torrent скачан:  106 раз   |   
Раздают:  1  
 

Скачать Страшные истории для рассказа в темноте / Scary Stories to Tell in the Dark (2019) WEB-DLRip-AVC от OlLanDGroup | iTunes через torrent

 
 
Автор Сообщение

Galfimbul

avatar Galfimbul


Страшные истории для рассказа в темноте / Scary Stories to Tell in the Dark
«Экранизация культовой трилогии ужасов»


Год выпуска: 2019
Страна: США, Канада, Китай
Производство: 1212 Entertainment, CBS Films
Жанр: Ужасы, триллер

Режиссёр: Андре Овредал
В ролях: Зои Маргарет Коллетти, Майкл Гарза, Гэбриел Раш, Остин Абрамс, Дин Норрис, Джил Беллоуз, Лоррейн Туссен, Остин Зажур, Натали Гэнзхорн, Кэтлин Поллард

Перевод: Дублированный | [iTunes]
Субтитры: Нет
Реклама: Отсутствует

Описание: 1968 год. Над Америкой витает ветер перемен... Но не над маленьким городком Милл-Вэлли, где проживало несколько поколений таинственной семьи Беллоу. В их зловещем особняке на краю города мучительная жизнь девочки Сары, хранящей ужасные тайны, превратилась в книжку страшных историй. Спустя время эти жуткие рассказы воплотились в реальность для нескольких подростков, нашедших книгу. «Страшные истории для рассказа в темноте» — экранизация популярной трилогии ужасов Элвина Шварца.



Качество: WEB-DLRip-AVC | iTunes Version |
Продолжительность: 01:43:11

Формат: MKV
Видео кодек: MPEG-4 AVC
Аудио кодек: AC3
Видео: 1024x428 (2.40:1), 25,000 fps, x264 ~1 871 kbps avg, 0.171 bit/pixel
Аудио: 48 kHz, AC3 Dolby Digital, 3/2 (L,C,R,l,r) + LFE ch, ~384.00 kbps avg | RUS (iTunes)

Дата премьеры (мир): 7 августа 2019
Дата премьеры (РФ): 8 августа 2019, «Парадиз»
Цифровой релиз:
Общее
Уникальный идентификатор : 214888465616872087917401467780342920847 (0xA1AA035821187ACE0378511FDDAEB68F)
Полное имя : F:OlLanDGroupScary.Stories.to.Tell.in.the.Dark.2019.WEB-DLRip(AVC).OllanDGroup.mkv
Формат : Matroska
Версия формата : Version 4 / Version 2
Размер файла : 1,63 Гбайт
Продолжительность : 1 ч. 43 м.
Общий поток : 2255 Кбит/сек
Название фильма : Scary Stories to Tell in the Dark 2019 #TorpedoUK#
Дата кодирования : UTC 2019-10-10 12:13:46
Программа кодирования : mkvmerge v29.0.0 ('Like It Or Not') 64-bit
Библиотека кодирования : libebml v1.3.6 + libmatroska v1.4.9

Видео
Идентификатор : 1
Формат : AVC
Формат/Информация : Advanced Video Codec
Профиль формата : [email protected]
Параметр CABAC формата : Да
Параметр ReFrames формата : 10 кадров
Идентификатор кодека : V_MPEG4/ISO/AVC
Продолжительность : 1 ч. 43 м.
Битрейт : 1871 Кбит/сек
Ширина : 1024 пикселя
Высота : 428 пикселей
Соотношение сторон : 2,40:1
Режим частоты кадров : Постоянный
Частота кадров : 25,000 кадров/сек
Цветовое пространство : YUV
Субдискретизация насыщенности : 4:2:0
Битовая глубина : 8 бит
Тип развёртки : Прогрессивная
Бит/(Пиксели*Кадры) : 0.171
Размер потока : 1,35 Гбайт (83%)
Библиотека кодирования : x264 core 146 r2538 121396c
Настройки программы : cabac=1 / ref=10 / deblock=1:-2:-3 / analyse=0x3:0x113 / me=umh / subme=10 / psy=1 / psy_rd=0.95:0.07 / mixed_ref=1 / me_range=48 / chroma_me=1 / trellis=2 / 8x8dct=1 / cqm=0 / deadzone=21,11 / fast_pskip=1 / chroma_qp_offset=-6 / threads=6 / lookahead_threads=1 / sliced_threads=0 / nr=0 / decimate=1 / interlaced=0 / bluray_compat=0 / constrained_intra=0 / bframes=11 / b_pyramid=2 / b_adapt=2 / b_bias=0 / direct=3 / weightb=1 / open_gop=0 / weightp=2 / keyint=250 / keyint_min=25 / scenecut=40 / intra_refresh=0 / rc_lookahead=40 / rc=2pass / mbtree=0 / bitrate=1871 / ratetol=1.0 / qcomp=0.60 / qpmin=0 / qpmax=69 / qpstep=4 / cplxblur=20.0 / qblur=0.5 / vbv_maxrate=50000 / vbv_bufsize=62500 / nal_hrd=none / filler=0 / ip_ratio=1.40 / pb_ratio=1.30 / aq=1:1.00
Язык : English
Default : Да
Forced : Нет

Аудио
Идентификатор : 2
Формат : AC-3
Формат/Информация : Audio Coding 3
Расширение режима : CM (complete main)
Параметр Endianness формата : Big
Идентификатор кодека : A_AC3
Продолжительность : 1 ч. 43 м.
Вид битрейта : Постоянный
Битрейт : 384 Кбит/сек
Каналы : 6 каналов
Расположение каналов : Front: L C R, Side: L R, LFE
Частота : 48,0 КГц
Частота кадров : 31,250 кадров/сек (1536 spf)
Битовая глубина : 16 бит
Метод сжатия : С потерями
Размер потока : 283 Мбайт (17%)
Заголовок : iTunes
Язык : Russian
Default : Да
Forced : Да

Меню
00:00:00.000 : en:Глава 1
00:05:10.160 : en:Глава 2
00:12:30.039 : en:Глава 3
00:19:16.838 : en:Глава 4
00:24:11.758 : en:Глава 5
00:32:16.597 : en:Глава 6
00:37:17.196 : en:Глава 7
00:44:50.395 : en:Глава 8
00:55:37.355 : en:Глава 9
00:59:42.394 : en:Глава 10
01:07:49.874 : en:Глава 11
01:13:19.833 : en:Глава 12
01:20:45.952 : en:Глава 13
01:27:59.991 : en:Глава 14
01:34:08.070 : en:Глава 15
Источник http://BlaTor.org

Внимание! AdBlock блокирует показ скриншотов, все вопросы к разработчикам )))

Трекер:  [ 10-Окт-2019 16:00 ]

  

Скачать .torrent

Размер .torrent файла 16 KB


Размер: 1.63 GB
Хэш (hash) релиза: 075b5fda36aa89bd4aa6d29349b81e90aba933a5
Подписка на обновления:

Торренты, похожие на Страшные истории для рассказа в темноте Scary Stories to Tell in the Dark скачать торрент

Форум Название Автор Размер S L Добавлен
Зарубежные фильмы 2016-2019 (Новинки зарубежного кино) ·%· Страшные истории для рассказа в темноте / Scary Stories to Tell in the Dark (2019) BDRip-HEVC 1080p от HEVC-CLUB | iTunes Galfimbul 51881998314.83 GB 0 0 1572941411

11:10

5-Ноя-19

Зарубежные фильмы 2016-2019 (Новинки зарубежного кино) ·%· Страшные истории для рассказа в темноте / Scary Stories to Tell in the Dark (2019) BDRip-AVC от OlLanDGroup | iTunes Galfimbul 781813774746 MB 0 0 1572328831

09:00

29-Окт-19

Зарубежные фильмы 2016-2019 (Новинки зарубежного кино) ·%· Страшные истории для рассказа в темноте / Scary Stories to Tell in the Dark (2019) BDRip | iTunes Galfimbul 23295544942.17 GB 0 0 1572285020

20:50

28-Окт-19

Зарубежные фильмы 2016-2019 (Новинки зарубежного кино) ·%· Страшные истории для рассказа в темноте / Scary Stories to Tell in the Dark (2019) BDRip-AVC от ExKinoRay | iTunes Galfimbul 18823884721.75 GB 0 0 1572219008

02:30

28-Окт-19

Зарубежные фильмы 2016-2019 (Новинки зарубежного кино) ·%· Страшные истории для рассказа в темноте / Scary Stories to Tell in the Dark (2019) BDRip | iTunes Galfimbul 784154624748 MB 0 0 1572213011

00:50

28-Окт-19

Зарубежные фильмы 2016-2019 (Новинки зарубежного кино) ·%· Страшные истории для рассказа в темноте / Scary Stories to Tell in the Dark (2019) BDRip 720p от селезень | iTunes Galfimbul 41455299073.86 GB 0 0 1572189023

18:10

27-Окт-19

Зарубежные фильмы 2016-2019 (Новинки зарубежного кино) ·%· Страшные истории для рассказа в темноте / Scary Stories to Tell in the Dark (2019) BDRip 1080p от селезень | iTunes Galfimbul 78694019187.33 GB 0 0 1572179412

15:30

27-Окт-19

Зарубежные фильмы 2016-2019 (Новинки зарубежного кино) ·%· Страшные истории для рассказа в темноте / Scary Stories to Tell in the Dark (2019) BDRemux 1080p от селезень | iTunes Galfimbul 3072184102928.61 GB 0 0 1572160207

10:10

27-Окт-19

Зарубежные фильмы 2016-2019 (Новинки зарубежного кино) ·%· Страшные истории для рассказа в темноте / Scary Stories to Tell in the Dark (2019) UHD BDRemux 2160p от селезень | 4K | HDR | iTunes Galfimbul 5425620933050.53 GB 0 0 1572094253

15:50

26-Окт-19

Зарубежные фильмы 2016-2019 (Новинки зарубежного кино) ·%· Страшные истории для рассказа в темноте / Scary Stories to Tell in the Dark (2019) WEBRip 720p | iTunes Galfimbul 35529508623.31 GB 0 0 1571754010

17:20

22-Окт-19

Зарубежные фильмы 2016-2019 (Новинки зарубежного кино) ·%· Страшные истории для рассказа в темноте / Scary Stories to Tell in the Dark (2019) WEB-DL 1080p | iTunes Galfimbul 66440077876.19 GB 0 0 1571748010

15:40

22-Окт-19

Зарубежные фильмы 2016-2019 (Новинки зарубежного кино) ·%· Страшные истории для рассказа в темноте / Scary Stories to Tell in the Dark (2019) WEB-DLRip | КПК | iTunes Galfimbul 495202121472 MB 0 0 1570882810

15:20

12-Окт-19

Зарубежные фильмы 2016-2019 (Новинки зарубежного кино) ·%· Страшные истории для рассказа в темноте / Scary Stories to Tell in the Dark (2019) WEB-DLRip от Scarabey | iTunes Galfimbul 16192061441.51 GB 0 0 1570812015

19:40

11-Окт-19

Зарубежные фильмы 2016-2019 (Новинки зарубежного кино) ·%· Страшные истории для рассказа в темноте / Scary Stories to Tell in the Dark (2019) WEB-DLRip-AVC | iTunes Galfimbul 781186380745 MB 0 0 1570719607

18:00

10-Окт-19

Зарубежные фильмы 2016-2019 (Новинки зарубежного кино) ·%· Страшные истории для рассказа в темноте / Scary Stories to Tell in the Dark (2019) WEB-DLRip от MegaPeer | iTunes Galfimbul 15682027521.46 GB 0 0 1570652445

23:20

9-Окт-19

Зарубежные фильмы 2016-2019 (Новинки зарубежного кино) ·%· Страшные истории для рассказа в темноте / Scary Stories to Tell in the Dark (2019) WEB-DL 1080p от селезень | iTunes Galfimbul 38313604953.57 GB 0 0 1570647607

22:00

9-Окт-19

Еще никто не оставлял запись к записи скачать торрент Страшные истории для рассказа в темноте Scary Stories to Tell in the Dark . Будь первым!

!Обратная связь