Скачать через торрент Король Лев The Lion King Фильм бесплатно в хорошем качестве torrent

Скачивайте на UnionPeer.org фильмы через торрент без регистрации. Новинки кино в хорошем качестве через торрент. На UnionPeer.org можно скачать через торрент фильмы 2014 и 2015 годов. Самые новые фильмы.

Скачать торрент Король Лев The Lion King бесплатно через .torrent фильм мультфильм сериал

Статистика раздачи
Размер:  9.67 GB   |    Зарегистрирован:  1 месяц 6 дней   |    .torrent скачан:  183 раза   |   
Раздают:  1  
 

Скачать Король Лев / The Lion King (2019) BDRip 1080p | iTunes через torrent

 
загрузка...
 
Автор Сообщение

Galfimbul

avatar Galfimbul


Король Лев /The Lion King

Год выхода: 2019
Жанр: Мультфильм, мюзикл, драма, приключения, семейный
Режиссер: Джон Фавро
В ролях: Джеймс Эрл Джонс, Дональд Гловер, Чиветел Эджиофор, Джон Оливер, Джон Кани, Элфри Вудард, Джейдон Маккрэри, Шахади Райт Джозеф, Пенни Джонсон, Кигэн-Майкл Ки

О фильме:
Действие фильма разворачивается в африканской саванне и повествует о молодом льве по имени Симба, который потерял своего отца Муфасу из-за своего злобного дяди Шрама и был изгнан из прайда в дальние края пустыни. Годы спустя он возвращается, чтобы вернуть себе трон.

Страна: США
Студия: Walt Disney Pictures, Fairview Entertainment
Продолжительность: 01:59:33
Перевод: Дублированный | iTunes

Файл
Кодек: h.264
Качество: BDRip 1080p
Видео: MPEG-4 AVC, 1920x1080, 23,976 fps, 9809 Kbps
Звук:
Аудио #1: Русский (AC3, 6 ch, 384 Kbps)
Аудио #2: Английский (DTS, 6 ch, 1509 Kbps)
Субтитры: Русские (Full, SDH)
Video
ID : 1
Format : AVC
Format/Info : Advanced Video Codec
Format profile : High@L4
Format settings : CABAC / 4 Ref Frames
Format settings, CABAC : Yes
Format settings, Reference : 4 frames
Codec ID : V_MPEG4/ISO/AVC
Duration : 1 h 58 min
Bit rate mode : Variable
Bit rate : 9 809 kb/s
Maximum bit rate : 40.0 Mb/s
Width : 1 920 pixels
Height : 1 080 pixels
Display aspect ratio : 16:9
Frame rate mode : Constant
Frame rate : 23.976 (24000/1001) FPS
Color space : YUV
Chroma subsampling : 4:2:0
Bit depth : 8 bits
Scan type : Progressive
Bits/(Pixel*Frame) : 0.197
Stream size : 8.10 GiB (84%)
Language : English
Default : Yes
Forced : No
Color range : Limited
Color primaries : BT.709
Transfer characteristics : BT.709
Matrix coefficients : BT.709

Audio #1
ID : 2
Format : AC-3
Format/Info : Audio Coding 3
Commercial name : Dolby Digital
Codec ID : A_AC3
Duration : 1 h 58 min
Bit rate mode : Constant
Bit rate : 384 kb/s
Channel(s) : 6 channels
Channel layout : L R C LFE Ls Rs
Sampling rate : 48.0 kHz
Frame rate : 31.250 FPS (1536 SPF)
Compression mode : Lossy
Stream size : 325 MiB (3%)
Language : Russian
Service kind : Complete Main
Default : Yes
Forced : Yes

Audio #2
ID : 3
Format : DTS
Format/Info : Digital Theater Systems
Codec ID : A_DTS
Duration : 1 h 58 min
Bit rate mode : Constant
Bit rate : 1 509 kb/s
Channel(s) : 6 channels
Channel layout : C L R Ls Rs LFE
Sampling rate : 48.0 kHz
Frame rate : 93.750 FPS (512 SPF)
Bit depth : 24 bits
Compression mode : Lossy
Stream size : 1.25 GiB (13%)
Language : English
Default : No
Forced : No

Text #1
ID : 4
Format : UTF-8
Codec ID : S_TEXT/UTF8
Codec ID/Info : UTF-8 Plain Text
Duration : 1 h 55 min
Bit rate : 68 b/s
Count of elements : 1371
Stream size : 58.1 KiB (0%)
Title : Full
Language : Russian
Default : No
Forced : No

Text #2
ID : 5
Format : UTF-8
Codec ID : S_TEXT/UTF8
Codec ID/Info : UTF-8 Plain Text
Duration : 1 h 47 min
Bit rate : 89 b/s
Count of elements : 1642
Stream size : 70.4 KiB (0%)
Title : SDH
Language : Russian
Default : No
Forced : No

Menu
00:00:00.000 : en:1
00:04:49.174 : en:2
00:10:49.742 : en:3
00:17:46.366 : en:4
00:23:51.689 : en:5
00:29:58.806 : en:6
00:33:03.740 : en:7
00:37:07.984 : en:8
00:43:41.585 : en:9
00:50:46.009 : en:10
00:55:01.389 : en:11
00:59:47.133 : en:12
01:06:25.906 : en:13
01:14:30.765 : en:14
01:18:25.082 : en:15
01:23:06.571 : en:16
01:28:03.326 : en:17
01:33:09.548 : en:18
01:37:12.415 : en:19
01:44:37.860 : en:20
01:47:46.006 : en:21
Релиз от: ~NoobSaibot~
Источник http://BlaTor.org

Трекер:  [ 11-Окт-2019 11:30 ]

  

Скачать .torrent

Размер .torrent файла 24 KB


Размер: 9.67 GB
Хэш (hash) релиза: 3642f2f7a2eb13a4efd120ecc610d18264966fb7
Подписка на обновления:

Торренты, похожие на Король Лев The Lion King скачать торрент

Форум Название Автор Размер S L Добавлен
Мультфильмы 2016-2018 (Новинки мультфильмов) ·%· Король Лев / The Lion King (2019) BDRip 1080p от Ash61 | 3D-Video | halfOU | iTunes Galfimbul 1216763163411.33 GB 0 0 1573245015

23:30

8-Ноя-19

Мультфильмы 2016-2018 (Новинки мультфильмов) ·%· Король Лев / The Lion King (2019) BDRip 1080p от селезень | 3D-Video | HSBS | iTunes Galfimbul 1421069468613.23 GB 1 1 1573164622

01:10

8-Ноя-19

Мультфильмы 2016-2018 (Новинки мультфильмов) ·%· Король Лев / The Lion King (2019) BDRemux 1080p от селезень | 3D-Video | iTunes Galfimbul 4211775897639.23 GB 0 0 1573117216

12:00

7-Ноя-19

Мультфильмы 2016-2018 (Новинки мультфильмов) ·%· Король Лев / The Lion King (2019) BDRip-AVC от ExKinoRay | iTunes Galfimbul 782416514746 MB 0 0 1571675425

19:30

21-Окт-19

Мультфильмы 2016-2018 (Новинки мультфильмов) ·%· Король Лев / The Lion King (2019) HDRip от Scarabey | iTunes Galfimbul 781187072745 MB 0 0 1571332843

20:20

17-Окт-19

Мультфильмы 2016-2018 (Новинки мультфильмов) ·%· Король Лев / The Lion King (2019) BDRip-HEVC 1080p от HEVC-CLUB | iTunes Galfimbul 80900955347.53 GB 3 0 1571167826

22:30

15-Окт-19

Мультфильмы 2016-2018 (Новинки мультфильмов) ·%· Король Лев / The Lion King (2019) HDRip от Generalfilm | КПК | iTunes Galfimbul 471701276450 MB 0 0 1570956616

11:50

13-Окт-19

Мультфильмы 2016-2018 (Новинки мультфильмов) ·%· Король Лев / The Lion King (2019) HDRip от ExKinoRay | iTunes Galfimbul 786634752750 MB 0 0 1570948211

09:30

13-Окт-19

Мультфильмы 2016-2018 (Новинки мультфильмов) ·%· Король Лев / The Lion King (2019) HDRip от MegaPeer | iTunes Galfimbul 833091442794 MB 0 0 1570947010

09:10

13-Окт-19

Зарубежные фильмы 2016-2018 (Новинки зарубежного кино) ·%· Король Лев / The Lion King (2019) BDRip 1080p | iTunes Galfimbul 1770686151216.49 GB 2 0 1570935007

05:50

13-Окт-19

Мультфильмы 2016-2018 (Новинки мультфильмов) ·%· Король Лев / The Lion King (2019) BDRip от Twister & ExKinoRay | iTunes Galfimbul 22864814142.13 GB 2 0 1570913455

23:50

12-Окт-19

Мультфильмы 2016-2018 (Новинки мультфильмов) ·%· Король Лев / The Lion King (2019) HDRip от Scarabey | iTunes Galfimbul 14939811841.39 GB 0 0 1570902026

20:40

12-Окт-19

Мультфильмы 2016-2018 (Новинки мультфильмов) ·%· Король Лев / The Lion King (2019) BDRip-AVC от OlLanDGroup | iTunes Galfimbul 26362103232.46 GB 0 0 1570898464

19:41

12-Окт-19

Мультфильмы 2016-2018 (Новинки мультфильмов) ·%· Король Лев / The Lion King (2019) BDRip от Twister & ExKinoRay | iTunes Galfimbul 15103896581.41 GB 0 0 1570896032

19:00

12-Окт-19

Мультфильмы 2016-2018 (Новинки мультфильмов) ·%· Король Лев / The Lion King (2019) BDRip 720p от ExKinoRay | iTunes Galfimbul 48278863344.5 GB 0 0 1570890018

17:20

12-Окт-19

Мультфильмы 2016-2018 (Новинки мультфильмов) ·%· Король Лев / The Lion King (2019) BDRip-HEVC 1080p от селезень | iTunes Galfimbul 72968559986.8 GB 0 0 1570884011

15:40

12-Окт-19

Мультфильмы 2016-2018 (Новинки мультфильмов) ·%· Король Лев / The Lion King (2019) BDRip 720p от селезень | iTunes Galfimbul 66749031796.22 GB 0 0 1570878065

14:01

12-Окт-19

Мультфильмы 2016-2018 (Новинки мультфильмов) ·%· Король Лев / The Lion King (2019) BDRip от MegaPeer | iTunes Galfimbul 15129559041.41 GB 0 0 1570876829

13:40

12-Окт-19

Мультфильмы 2016-2018 (Новинки мультфильмов) ·%· Король Лев / The Lion King (2019) BDRip от MegaPeer | iTunes Galfimbul 22862213122.13 GB 0 0 1570876824

13:40

12-Окт-19

Мультфильмы 2016-2018 (Новинки мультфильмов) ·%· Король Лев / The Lion King (2019) BDRemux 1080p от селезень | iTunes Galfimbul 2930694281627.29 GB 2 0 1570839621

03:20

12-Окт-19

Еще никто не оставлял запись к записи скачать торрент Король Лев The Lion King . Будь первым!

!Обратная связь