Скачать через торрент Дорогой папа Фильм бесплатно в хорошем качестве torrent

Скачивайте на UnionPeer.org фильмы через торрент без регистрации. Новинки кино в хорошем качестве через торрент. На UnionPeer.org можно скачать через торрент фильмы 2014 и 2015 годов. Самые новые фильмы.

Скачать торрент Дорогой папа бесплатно через .torrent фильм мультфильм сериал

Статистика раздачи
Размер:  3.38 GB   |    Зарегистрирован:  1 месяц 5 дней   |    .torrent скачан:  210 раз   |   
Раздают:  3  
 

Скачать Дорогой папа (2019) WEB-DL 1080p | iTunes через torrent

 
загрузка...
 
Автор Сообщение

Galfimbul

avatar Galfimbul


Название: Дорогой папа
Год выхода: 2019
Жанр: комедия, семейный
Режиссер: Михаил Расходников
В ролях: Владимир Вдовиченков, Валентина Ляпина, Владимир Сычев, Ирина Пегова, Николай Шрайбер, Иева Андреевайте, Игорь Ясулович, Юлия Сулес, Варвара Малкова, Андрей Пермяков

О фильме:
Владелец ведущей торговой сети Вадим Дюмин привык добиваться своего любыми способами. Обаяние и продуманный план помогают ему найти китайского инвестора, готового стать партнером в компании Вадима, оформленной когда-то на его маму. Вот только, оказалось, она завещала акции своей внучке, его дочери... Которую Вадим бросил, когда ей было 2 года.

Теперь Вадим должен поехать в свой родной маленький город, найти бывшую жену и дочь и убедить их отказаться от наследства на сумму... где-то полмиллиарда долларов. Вадим уверен, что его обаяние и манипуляции сработают и здесь, но в мире дочери его методы не работают, и слово "дорогой" здесь совсем не про деньги.

«Богатый тоже плачет»


Выпущено: Россия
Продолжительность: 01:27:04
Перевод: не требуется

Контейнер: MKV
Тип релиза: WEB-DL 1080p
Видео: MPEG4 AVC Video, H264, 2.40:1, 1920x800, 24 fps, 5176 kbps
Аудио: Russian (AC3, 6 ch, 384 kbps, 16 bits, 48.0 KHz) - оригинал (iTunes)
Субтитры: нет
General
Unique ID : 193979933455381108027471167423148523441 (0x91EF2D1E67B9B0F29C4693A52E8CFFB1)
Complete name : D:Dorogoy.papa.2019.WEB-DL.(1080p).Getty.mkv
Format : Matroska
Format version : Version 4 / Version 2
File size : 3.38 GiB
Duration : 1 h 27 min
Overall bit rate : 5 562 kb/s
Movie name : Dorogoy.papa.2019.WEB-DL.(1080p).Getty
Encoded date : UTC 2019-10-11 23:46:59
Writing application : mkvmerge v7.8.0 ('River Man') 32bit built on Mar 27 2015 16:18:02
Writing library : libebml v1.3.1 + libmatroska v1.4.2

Video
ID : 1
Format : AVC
Format/Info : Advanced Video Codec
Format profile : High@L4
Format settings : CABAC / 4 Ref Frames
Format settings, CABAC : Yes
Format settings, ReFrames : 4 frames
Codec ID : V_MPEG4/ISO/AVC
Duration : 1 h 27 min
Bit rate : 5 176 kb/s
Width : 1 920 pixels
Height : 800 pixels
Display aspect ratio : 2.40:1
Frame rate mode : Constant
Frame rate : 24.000 FPS
Color space : YUV
Chroma subsampling : 4:2:0
Bit depth : 8 bits
Scan type : Progressive
Bits/(Pixel*Frame) : 0.140
Stream size : 3.15 GiB (93%)
Default : Yes
Forced : No

Audio
ID : 2
Format : AC-3
Format/Info : Audio Coding 3
Codec ID : A_AC3
Duration : 1 h 27 min
Bit rate mode : Constant
Bit rate : 384 kb/s
Channel(s) : 6 channels
Channel positions : Front: L C R, Side: L R, LFE
Sampling rate : 48.0 kHz
Frame rate : 31.250 FPS (1536 SPF)
Bit depth : 16 bits
Compression mode : Lossy
Stream size : 239 MiB (7%)
Service kind : Complete Main
Default : Yes
Forced : No
Источник http://BlaTor.org

Трекер:  [ 12-Окт-2019 10:20 ]

  

Скачать .torrent

Размер .torrent файла 17 KB


Размер: 3.38 GB
Хэш (hash) релиза: 20a6fd7abc766f682e571c1f9998fa5f5ffe73bb
Подписка на обновления:

Торренты, похожие на Дорогой папа скачать торрент

Форум Название Автор Размер S L Добавлен
Российские фильмы 2016-2018 (Новинки русского кино) ·%· Дорогой папа (2019) WEB-DLRip-AVC от Files-x | iTunes Galfimbul 15628674821.46 GB 0 0 1570998615

23:30

13-Окт-19

Российские фильмы 2016-2018 (Новинки русского кино) ·%· Дорогой папа (2019) WEB-DLRip от Scarabey | iTunes Galfimbul 15464181761.44 GB 0 0 1570985486

19:51

13-Окт-19

Российские фильмы 2016-2018 (Новинки русского кино) ·%· Дорогой папа (2019) WEB-DLRip | iTunes Galfimbul 778489856742 MB 0 0 1570965032

14:10

13-Окт-19

Российские фильмы 2016-2018 (Новинки русского кино) ·%· Дорогой папа (2019) WEB-DL 720p от ExKinoRay | iTunes Galfimbul 19500489851.82 GB 0 0 1570886426

16:20

12-Окт-19

Российские фильмы 2016-2018 (Новинки русского кино) ·%· Дорогой папа (2019) WEB-DLRip-AVC от ExKinoRay | iTunes Galfimbul 781157074745 MB 0 0 1570886419

16:20

12-Окт-19

Российские фильмы 2016-2018 (Новинки русского кино) ·%· Дорогой папа (2019) WEB-DLRip | iTunes Galfimbul 15630315521.46 GB 0 0 1570881639

15:00

12-Окт-19

Российские фильмы 2016-2018 (Новинки русского кино) ·%· Дорогой папа (2019) WEB-DLRip-AVC от OlLanDGroup | iTunes Galfimbul 15065029511.4 GB 0 0 1570867213

11:00

12-Окт-19

Зарубежные фильмы до 2016 ·· Дорогой папа / Caro papà (Дино Ризи /Dino Risi) [1979 г., Драма, DVDRip] Galfimbul 847040512808 MB 0 0 1364816953

14:49

1-Апр-13

Еще никто не оставлял запись к записи скачать торрент Дорогой папа . Будь первым!

!Обратная связь