Скачать через торрент Король Лев The Lion King Фильм бесплатно в хорошем качестве torrent

Скачивайте на UnionPeer.org фильмы через торрент без регистрации. Новинки кино в хорошем качестве через торрент. На UnionPeer.org можно скачать через торрент фильмы 2014 и 2015 годов. Самые новые фильмы.

Скачать торрент Король Лев The Lion King бесплатно через .torrent фильм мультфильм сериал

Статистика раздачи
Размер:  16.49 GB   |    Зарегистрирован:  1 месяц 4 дня   |    .torrent скачан:  162 раза   |   
Раздают:  2  
 

Скачать Король Лев / The Lion King (2019) BDRip 1080p | iTunes через torrent

 
загрузка...
 
Автор Сообщение

Galfimbul

avatar Galfimbul


Король Лев / The Lion King

Страна: США
Производство: Walt Disney Pictures, Fairview Entertainment
Год выпуска: 2019
Жанр: мультфильм, мюзикл, драма, приключения, семейный
Продолжительность: 01:58:15

Режиссер: Джон Фавро / Jon Favreau
Роли озвучивали: Джеймс Эрл Джонс, Дональд Гловер, Чиветель Эджиофор, Джон Оливер, Джон Кани, Элфри Вудард, Джейдон Маккрэри, Шахади Райт Джозеф, Пенни Джонсон, Кигэн-Майкл Ки, Эрик Андре, Флоренс Касумба, Сет Роген, Билли Айкнер

Описание: История об отважном львёнке по имени Симба. Знакомые с детства герои взрослеют, влюбляются, познают себя и окружающий мир, совершают ошибки и делают правильный выбор...



Перевод: Профессиональный (полное дублирование) | iTunes
Субтитры: русские (full + SDH), английские (full)

Тип релиза: BDRip 1080p
Контейнер: MKV
Видео: 1920x1080 (16:9), 23.976 fps, MPEG-4 AVC ~17.9 Mbps avg
Аудио №1: 48.0 kHz, AC3 Dolby Digital, 3/2 (L,C,R,l,r) + LFE ch, ~384 kbps | RUS
Аудио №2: 48.0 kHz, AC3 Dolby Digital, 2/0 (L,R) ch, ~192 kbps | UKR / DUB
Аудио №3: 48.0 kHz, Digital Theater Systems, 3/2 (L,C,R,l,r) + LFE ch, ~1509 kbps | ENG
Формат субтитров: UTF-8 Plain Text

Дата премьеры (мир): 9 июля 2019

General
Уникальный идентификатор : 240846853433662568010643372920747213444 (0xB5316AAD1BE6479E8D19F763BA264284)
Полное имя : The_Lion_King_BDRip_1080p_zh.mkv
Формат : Matroska
Версия формата : Version 4
Размер файла : 16,5 Гбайт
Продолжительность : 1 ч. 58 м.
Общий поток : 20,0 Мбит/сек
Название фильма : The_Lion_King_2019_BDRip_1080p_zh
Дата кодирования : UTC 2019-10-13 01:30:52
Программа кодирования : mkvmerge v25.0.0 ('Prog Noir') 64-bit
Библиотека кодирования : libebml v1.3.6 + libmatroska v1.4.9
Обложка : Yes

Видео
Идентификатор : 1
Формат : AVC
Формат/Информация : Advanced Video Codec
Профиль формата : High@L4.1
Настройки формата : CABAC / 4 Ref Frames
Параметр CABAC формата : Да
Параметр RefFrames формата : 4 кадра
Идентификатор кодека : V_MPEG4/ISO/AVC
Продолжительность : 1 ч. 58 м.
Битрейт : 17,9 Мбит/сек
Ширина : 1920 пикселей
Высота : 1080 пикселей
Соотношение сторон : 16:9
Режим частоты кадров : Постоянный
Частота кадров : 23,976 (24000/1001) кадра/сек
Цветовое пространство : YUV
Субдискретизация насыщенности : 4:2:0
Битовая глубина : 8 бит
Тип развёртки : Прогрессивная
Бит/(Пиксели*Кадры) : 0.360
Размер потока : 14,8 Гбайт (90%)
Заголовок : The_Lion_King_2019_BDRip_1080p
Библиотека кодирования : x264 core 157 r2938 2b00a84 TnP@MTeam Mod
Настройки программы : cabac=1 / ref=4 / deblock=1:-3:-3 / analyse=0x3:0x133 / me=umh / subme=10 / psy=1 / psy_rd=1.05:0.00 / mixed_ref=1 / me_range=32 / chroma_me=1 / trellis=2 / 8x8dct=1 / cqm=0 / deadzone=21,11 / fast_pskip=0 / chroma_qp_offset=-2 / threads=12 / lookahead_threads=2 / sliced_threads=0 / nr=0 / decimate=0 / interlaced=0 / bluray_compat=0 / constrained_intra=0 / bframes=8 / b_pyramid=2 / b_adapt=2 / b_bias=0 / direct=3 / weightb=1 / open_gop=0 / weightp=2 / keyint=250 / keyint_min=24 / scenecut=40 / intra_refresh=0 / rc_lookahead=250 / rc=crf / mbtree=0 / crf=16.1 / qcomp=0.60 / qpmin=0 / qpmax=69 / qpstep=4 / vbv_maxrate=62500 / vbv_bufsize=78125 / crf_max=0.0 / nal_hrd=none / filler=0 / ip_ratio=1.30 / pb_ratio=1.20 / aq=3:0.80
Язык : English
Default : Да
Forced : Нет
Цветовой диапазон : Limited
Основные цвета : BT.709
Коэффициенты матрицы : BT.709

Аудио #1
Идентификатор : 2
Формат : AC-3
Формат/Информация : Audio Coding 3
Коммерческое название : Dolby Digital
Идентификатор кодека : A_AC3
Продолжительность : 1 ч. 58 м.
Вид битрейта : Постоянный
Битрейт : 384 Кбит/сек
Каналы : 6 каналов
ChannelLayout : L R C LFE Ls Rs
Частота : 48,0 КГц
Частота кадров : 31,250 кадров/сек (1536 SPF)
Метод сжатия : С потерями
Размер потока : 325 Мбайт (2%)
Заголовок : iTunes (rus)
Язык : Russian
Default : Да
Forced : Да

Аудио #2
Идентификатор : 5
Формат : AC-3
Формат/Информация : Audio Coding 3
Коммерческое название : Dolby Digital
Идентификатор кодека : A_AC3
Продолжительность : 1 ч. 58 м.
Вид битрейта : Постоянный
Битрейт : 192 Кбит/сек
Каналы : 2 канала
ChannelLayout : L R
Частота : 48,0 КГц
Частота кадров : 31,250 кадров/сек (1536 SPF)
Метод сжатия : С потерями
Размер потока : 162 Мбайт (1%)
Заголовок : DUB (ukr)
Язык : Ukrainian
Default : Нет
Forced : Нет

Аудио #3
Идентификатор : 6
Формат : DTS
Формат/Информация : Digital Theater Systems
Идентификатор кодека : A_DTS
Продолжительность : 1 ч. 58 м.
Вид битрейта : Постоянный
Битрейт : 1509 Кбит/сек
Каналы : 6 каналов
ChannelLayout : C L R Ls Rs LFE
Частота : 48,0 КГц
Частота кадров : 93,750 кадра/сек (512 SPF)
Битовая глубина : 24 бит
Метод сжатия : С потерями
Размер потока : 1,25 Гбайт (8%)
Заголовок : Original (eng)
Язык : English
Default : Нет
Forced : Нет

Текст #1
Идентификатор : 3
Формат : UTF-8
Идентификатор кодека : S_TEXT/UTF8
Идентификатор кодека/Информация : UTF-8 Plain Text
Продолжительность : 1 ч. 55 м.
Битрейт : 68 бит/сек
ElementCount : 1371
Размер потока : 58,1 Кбайт (0%)
Заголовок : Full (rus)
Язык : Russian
Default : Нет
Forced : Нет

Текст #2
Идентификатор : 4
Формат : UTF-8
Идентификатор кодека : S_TEXT/UTF8
Идентификатор кодека/Информация : UTF-8 Plain Text
Продолжительность : 1 ч. 47 м.
Битрейт : 89 бит/сек
ElementCount : 1642
Размер потока : 70,4 Кбайт (0%)
Заголовок : SDH (rus)
Язык : Russian
Default : Нет
Forced : Нет

Текст #3
Идентификатор : 7
Формат : UTF-8
Идентификатор кодека : S_TEXT/UTF8
Идентификатор кодека/Информация : UTF-8 Plain Text
Продолжительность : 1 ч. 46 м.
Битрейт : 50 бит/сек
ElementCount : 1369
Размер потока : 39,1 Кбайт (0%)
Заголовок : Full (eng)
Язык : English
Default : Нет
Forced : Нет

Текст #4
Идентификатор : 8
Формат : UTF-8
Идентификатор кодека : S_TEXT/UTF8
Идентификатор кодека/Информация : UTF-8 Plain Text
Продолжительность : 1 ч. 52 м.
Битрейт : 58 бит/сек
ElementCount : 1705
Размер потока : 47,6 Кбайт (0%)
Заголовок : SDH (eng)
Язык : English
Default : Да
Forced : Нет
Источник http://BlaTor.org

Трекер:  [ 13-Окт-2019 05:50 ]

  

Скачать .torrent

Размер .torrent файла 41 KB


Размер: 16.49 GB
Хэш (hash) релиза: eb52c35a0e97d22e54c0370ddd03a8c880a51a09
Подписка на обновления:

Торренты, похожие на Король Лев The Lion King скачать торрент

Форум Название Автор Размер S L Добавлен
Мультфильмы 2016-2018 (Новинки мультфильмов) ·%· Король Лев / The Lion King (2019) BDRip 1080p от Ash61 | 3D-Video | halfOU | iTunes Galfimbul 1216763163411.33 GB 0 0 1573245015

23:30

8-Ноя-19

Мультфильмы 2016-2018 (Новинки мультфильмов) ·%· Король Лев / The Lion King (2019) BDRip 1080p от селезень | 3D-Video | HSBS | iTunes Galfimbul 1421069468613.23 GB 1 1 1573164622

01:10

8-Ноя-19

Мультфильмы 2016-2018 (Новинки мультфильмов) ·%· Король Лев / The Lion King (2019) BDRemux 1080p от селезень | 3D-Video | iTunes Galfimbul 4211775897639.23 GB 0 0 1573117216

12:00

7-Ноя-19

Мультфильмы 2016-2018 (Новинки мультфильмов) ·%· Король Лев / The Lion King (2019) BDRip-AVC от ExKinoRay | iTunes Galfimbul 782416514746 MB 0 0 1571675425

19:30

21-Окт-19

Мультфильмы 2016-2018 (Новинки мультфильмов) ·%· Король Лев / The Lion King (2019) HDRip от Scarabey | iTunes Galfimbul 781187072745 MB 0 0 1571332843

20:20

17-Окт-19

Мультфильмы 2016-2018 (Новинки мультфильмов) ·%· Король Лев / The Lion King (2019) BDRip-HEVC 1080p от HEVC-CLUB | iTunes Galfimbul 80900955347.53 GB 3 0 1571167826

22:30

15-Окт-19

Мультфильмы 2016-2018 (Новинки мультфильмов) ·%· Король Лев / The Lion King (2019) HDRip от Generalfilm | КПК | iTunes Galfimbul 471701276450 MB 0 0 1570956616

11:50

13-Окт-19

Мультфильмы 2016-2018 (Новинки мультфильмов) ·%· Король Лев / The Lion King (2019) HDRip от ExKinoRay | iTunes Galfimbul 786634752750 MB 0 0 1570948211

09:30

13-Окт-19

Мультфильмы 2016-2018 (Новинки мультфильмов) ·%· Король Лев / The Lion King (2019) HDRip от MegaPeer | iTunes Galfimbul 833091442794 MB 0 0 1570947010

09:10

13-Окт-19

Мультфильмы 2016-2018 (Новинки мультфильмов) ·%· Король Лев / The Lion King (2019) BDRip от Twister & ExKinoRay | iTunes Galfimbul 22864814142.13 GB 2 0 1570913455

23:50

12-Окт-19

Мультфильмы 2016-2018 (Новинки мультфильмов) ·%· Король Лев / The Lion King (2019) HDRip от Scarabey | iTunes Galfimbul 14939811841.39 GB 0 0 1570902026

20:40

12-Окт-19

Мультфильмы 2016-2018 (Новинки мультфильмов) ·%· Король Лев / The Lion King (2019) BDRip-AVC от OlLanDGroup | iTunes Galfimbul 26362103232.46 GB 0 0 1570898464

19:41

12-Окт-19

Мультфильмы 2016-2018 (Новинки мультфильмов) ·%· Король Лев / The Lion King (2019) BDRip от Twister & ExKinoRay | iTunes Galfimbul 15103896581.41 GB 0 0 1570896032

19:00

12-Окт-19

Мультфильмы 2016-2018 (Новинки мультфильмов) ·%· Король Лев / The Lion King (2019) BDRip 720p от ExKinoRay | iTunes Galfimbul 48278863344.5 GB 0 0 1570890018

17:20

12-Окт-19

Мультфильмы 2016-2018 (Новинки мультфильмов) ·%· Король Лев / The Lion King (2019) BDRip-HEVC 1080p от селезень | iTunes Galfimbul 72968559986.8 GB 0 0 1570884011

15:40

12-Окт-19

Мультфильмы 2016-2018 (Новинки мультфильмов) ·%· Король Лев / The Lion King (2019) BDRip 720p от селезень | iTunes Galfimbul 66749031796.22 GB 0 0 1570878065

14:01

12-Окт-19

Мультфильмы 2016-2018 (Новинки мультфильмов) ·%· Король Лев / The Lion King (2019) BDRip от MegaPeer | iTunes Galfimbul 15129559041.41 GB 0 0 1570876829

13:40

12-Окт-19

Мультфильмы 2016-2018 (Новинки мультфильмов) ·%· Король Лев / The Lion King (2019) BDRip от MegaPeer | iTunes Galfimbul 22862213122.13 GB 0 0 1570876824

13:40

12-Окт-19

Мультфильмы 2016-2018 (Новинки мультфильмов) ·%· Король Лев / The Lion King (2019) BDRemux 1080p от селезень | iTunes Galfimbul 2930694281627.29 GB 2 0 1570839621

03:20

12-Окт-19

Еще никто не оставлял запись к записи скачать торрент Король Лев The Lion King . Будь первым!

!Обратная связь