Скачать через торрент Оно 2 It Chapter Two Фильм бесплатно в хорошем качестве torrent

Скачивайте на UnionPeer.org фильмы через торрент без регистрации. Новинки кино в хорошем качестве через торрент. На UnionPeer.org можно скачать через торрент фильмы 2014 и 2015 годов. Самые новые фильмы.

Скачать торрент Оно 2 It Chapter Two бесплатно через .torrent фильм мультфильм сериал

Статистика раздачи
Размер:  2.28 GB   |    Зарегистрирован:  1 месяц 2 дня   |    .torrent скачан:  407 раз   |   
Раздают:  4  
 

Скачать Оно 2 / It Chapter Two (2019) WEBRip 1080p | HDRezka Studio через torrent

 
загрузка...
 
Автор Сообщение

Galfimbul

avatar Galfimbul


Оно 2 /It Chapter Two

Год выхода: 2019
Жанр: Ужасы, экранизация
Режиссер: Андрес Мускетти
В ролях: Джессика Честейн, Джеймс МакЭвой, Билл Хэйдер, Айзая Мустафа, Джей Райан, Джеймс Рэнсон, Энди Бин, Билл Скарсгард, Джейден Мартелл, Уайатт Олефф, Джек Дилан Грейзер, Финн Вулфард, София Лиллис, Чоузен Джейкобс, Джереми Рэй Тейлор, Тич Грант, Николас Хэмилтон, Хавьер Ботет, Тейлор Фрэй, Молли Эткинсон, Люк Росслер, Джесс Вейкслер



О фильме: Проходит 27 лет после первой встречи ребят с демоническим Пеннивайзом. Они уже выросли, и у каждого своя жизнь. Но неожиданно их спокойное существование нарушает странный телефонный звонок, который заставляет их вновь собраться вместе.

Страна: Канада, США
Студия: KatzSmith Productions, Lin Pictures, New Line Cinema
Продолжительность: 02:45:09
Перевод: Профессиональный многоголосый (HDRezka Studio)

Качество: WEBRip 1080p
Видео: MPEG-4 AVC, 1795 Кбит/с, 1920x1080, 23.976 Кадр/с
Звук: Русский (AAC, 2 ch, 180 Kbit/s)
Субтитры: Русские (форсированные, хардсаб), корейские (хардсаб)
Семпл

Скриншоты:


Без рекламы.
Video
ID : 1
Format : AVC
Format/Info : Advanced Video Codec
Format profile : High@L4.1
Format settings : CABAC / 4 Ref Frames
Format settings, CABAC : Yes
Format settings, Reference : 4 frames
Codec ID : V_MPEG4/ISO/AVC
Duration : 2 h 45 min
Bit rate : 1 795 kb/s
Width : 1 920 pixels
Height : 1 088 pixels
Original height : 1 080 pixels
Display aspect ratio : 16:9
Original display aspect rat : 16:9
Frame rate mode : Constant
Frame rate : 23.976 FPS
Color space : YUV
Chroma subsampling : 4:2:0
Bit depth : 8 bits
Scan type : Progressive
Bits/(Pixel*Frame) : 0.036
Stream size : 2.07 GiB (91%)
Language : English
Default : Yes
Forced : No

Audio
ID : 2
Format : AAC LC
Format/Info : Advanced Audio Codec Low Complexity
Codec ID : A_AAC-2
Duration : 2 h 45 min
Bit rate : 180 kb/s
Channel(s) : 2 channels
Channel layout : L R
Sampling rate : 48.0 kHz
Frame rate : 46.875 FPS (1024 SPF)
Compression mode : Lossy
Delay relative to video : 13 ms
Stream size : 212 MiB (9%)
Language : Russian
Default : Yes
Forced : No
Источник http://BlaTor.org

Трекер:  [ 15-Окт-2019 02:20 ]

  

Скачать .torrent

Размер .torrent файла 12 KB


Размер: 2.28 GB
Хэш (hash) релиза: 11af486cc222186e605c834fb63f870c725b6faf
Подписка на обновления:

Еще никто не оставлял запись к записи скачать торрент Оно 2 It Chapter Two . Будь первым!

!Обратная связь