Скачать через торрент Райские холмы Paradise Hills Фильм бесплатно в хорошем качестве torrent

Скачивайте на UnionPeer.org фильмы через торрент без регистрации. Новинки кино в хорошем качестве через торрент. На UnionPeer.org можно скачать через торрент фильмы 2014 и 2015 годов. Самые новые фильмы.

Скачать торрент Райские холмы Paradise Hills бесплатно через .torrent фильм мультфильм сериал

Статистика раздачи
Размер:  1.29 GB   |    Зарегистрирован:  1 месяц 2 дня   |    .torrent скачан:  176 раз   |   
Раздают:  2  
 

Скачать Райские холмы / Paradise Hills (2019) WEBRip 1080p | HDRezka Studio через torrent

 
загрузка...
 
Автор Сообщение

Galfimbul

avatar Galfimbul


Райские холмы /Paradise Hills

Год выхода: 2019
Жанр: Фэнтези
Режиссер: Элис Вэддингтон
В ролях: Эйса Гонсалес, Аквафина, Милла Йовович, Эмма Робертс, Джереми Ирвин, Даниэль МакДональд, Лилиана Кабаль, Арно Валуа, Хантер Тремейн, Дэниэл Хорват



О фильме: Добро пожаловать в дивный новый мир. Здесь создан высокотехнологичный остров, имя которому «Райские холмы». Богатые семьи отправляют сюда «несовершенных» дочерей, чтобы преобразить их по своему подобию. Ведь если ты принадлежишь к высшему обществу, даже в далеком будущем брак по любви - непозволительная роскошь. Красота, покорность и непорочность - вот путь к новой жизни. И тебя ждет прекрасное будущее, но только если ты готова подчиняться правилам...

Страна: Испания
Студия: Nostromo Pictures, Colina Paraiso AIE, Radio Televisi?n Espa?ola
Продолжительность: 01:33:46
Перевод: Профессиональный многоголосый (HDRezka Studio)

Качество: WEBRip 1080p
Видео: MPEG-4 AVC, 1799 Кбит/с, 1920x960, 23.976 Кадр/с
Звук: Русский (AAC, 2 ch, 169 Kbit/s)
Субтитры: Русские (форсированные, хардсаб)
Семпл

Скриншоты:


Без рекламы.
Video
ID : 1
Format : AVC
Format/Info : Advanced Video Codec
Format profile : High@L4.1
Format settings : CABAC / 4 Ref Frames
Format settings, CABAC : Yes
Format settings, Reference : 4 frames
Codec ID : V_MPEG4/ISO/AVC
Duration : 1 h 33 min
Bit rate : 1 799 kb/s
Width : 1 920 pixels
Height : 960 pixels
Display aspect ratio : 2.000
Frame rate mode : Constant
Frame rate : 23.976 FPS
Color space : YUV
Chroma subsampling : 4:2:0
Bit depth : 8 bits
Scan type : Progressive
Bits/(Pixel*Frame) : 0.041
Stream size : 1.18 GiB (91%)
Language : English
Default : Yes
Forced : No

Audio
ID : 2
Format : AAC LC
Format/Info : Advanced Audio Codec Low Complexity
Codec ID : A_AAC-2
Duration : 1 h 33 min
Bit rate : 169 kb/s
Channel(s) : 2 channels
Channel layout : L R
Sampling rate : 48.0 kHz
Frame rate : 46.875 FPS (1024 SPF)
Compression mode : Lossy
Delay relative to video : 16 ms
Stream size : 113 MiB (9%)
Language : Russian
Default : Yes
Forced : No
Источник http://BlaTor.org

Трекер:  [ 15-Окт-2019 04:00 ]

  

Скачать .torrent

Размер .torrent файла 13 KB


Размер: 1.29 GB
Хэш (hash) релиза: 5191b3bfff4942e7c99b7b523a127da08588ad7e
Подписка на обновления:

Торренты, похожие на Райские холмы Paradise Hills скачать торрент

Форум Название Автор Размер S L Добавлен
Зарубежные фильмы 2016-2018 (Новинки зарубежного кино) ·%· Райские холмы / Paradise Hills (2019) WEBRip-AVC от ExKinoRay | HDRezka Studio Galfimbul 14667531311.37 GB 0 0 1573005022

04:50

6-Ноя-19

Еще никто не оставлял запись к записи скачать торрент Райские холмы Paradise Hills . Будь первым!

!Обратная связь