Скачать через торрент Король Лев The Lion King Фильм бесплатно в хорошем качестве torrent

Скачивайте на UnionPeer.org фильмы через торрент без регистрации. Новинки кино в хорошем качестве через торрент. На UnionPeer.org можно скачать через торрент фильмы 2014 и 2015 годов. Самые новые фильмы.

Скачать торрент Король Лев The Lion King бесплатно через .torrent фильм мультфильм сериал

Статистика раздачи
Размер:  7.53 GB   |    Зарегистрирован:  1 месяц 1 день   |    .torrent скачан:  112 раз   |   
Раздают:  3  
 

Скачать Король Лев / The Lion King (2019) BDRip-HEVC 1080p от HEVC-CLUB | iTunes через torrent

 
загрузка...
 
Автор Сообщение

Galfimbul

avatar Galfimbul


Год выхода: 2019
Страна / Студия: США / Fairview Entertainment, Walt Disney Pictures
Жанр: Мультфильм, мюзикл, драма, приключения, семейный
Продолжительность: 01:58:14
Перевод: Дублированный (iTunes)

Режиссер: Джон Фавро

Описание: Действие фильма разворачивается в африканской саванне и повествует о молодом льве по имени Симба, который потерял своего отца Муфасу из-за своего злобного дяди Шрама и был изгнан из прайда в дальние края пустыни. Годы спустя он возвращается, чтобы вернуть себе трон.

Качество: BDRip 1080p
Видео: HEVC/H.265, 1920x1080, ~8093 Kbps
Аудио 1: AC3, 6 ch, 384 Kbps - Русский, дублированный
Аудио 2: AC3, 6 ch, 640 Kbps - Английский
Субтитры: Русские (полные, SDH), английские


<span style="color:black;">
x265 [info]: frame I: Avg QP:16.45 kb/s
x265 [info]: frame P: Avg QP:18.08 kb/s
x265 [info]: frame B: Avg QP:19.84 kb/s

xAvg QP:19.38
Общее
Уникальный идентификатор : 272589928479166773145466990786977414775 (0xCD12E91BBF4F2CCCD90B041709EF3E77)
Полное имя : R:The Lion King (2019) BDRip 1080p [HEVC].mkv
Формат : Matroska
Версия формата : Version 4 / Version 2
Размер файла : 7,53 Гбайт
Продолжительность : 1 ч. 58 м.
Общий поток : 9122 Кбит/сек
Название фильма : The Lion King (2019)
Дата кодирования : UTC 2019-10-14 20:33:48
Программа кодирования : mkvmerge v37.0.0 ('Leave It') 64-bit
Библиотека кодирования : libebml v1.3.9 + libmatroska v1.5.2
Обложка : Yes
Attachments : cover.jpg

Видео
Идентификатор : 1
Формат : HEVC
Формат/Информация : High Efficiency Video Coding
Профиль формата : Main 10@L4.1@High
Идентификатор кодека : V_MPEGH/ISO/HEVC
Продолжительность : 1 ч. 58 м.
Битрейт : 8093 Кбит/сек
Ширина : 1920 пикселей
Высота : 1080 пикселей
Соотношение сторон : 16:9
Режим частоты кадров : Постоянный
Частота кадров : 23,976 (23976/1000) кадра/сек
Частота кадров в оригинале : 23,976 (24000/1001) кадра/сек
Цветовое пространство : YUV
Субдискретизация насыщенности : 4:2:0
Битовая глубина : 10 бит
Бит/(Пиксели*Кадры) : 0.163
Размер потока : 6,69 Гбайт (89%)
Библиотека кодирования : x265 3.1.2+1-76650bab70f9:[Windows][MSVC 1922][64 bit] 10bit
Настройки программы : cpuid=1111039 / frame-threads=3 / numa-pools=12 / wpp / no-pmode / no-pme / no-psnr / no-ssim / log-level=2 / input-csp=1 / input-res=1920x1080 / interlace=0 / total-frames=154934 / level-idc=41 / high-tier=1 / uhd-bd=0 / ref=5 / no-allow-non-conformance / no-repeat-headers / annexb / no-aud / no-hrd / info / hash=0 / no-temporal-layers / open-gop / min-keyint=23 / keyint=240 / gop-lookahead=0 / bframes=10 / b-adapt=2 / b-pyramid / bframe-bias=0 / rc-lookahead=60 / lookahead-slices=4 / scenecut=40 / radl=0 / no-splice / no-intra-refresh / ctu=32 / min-cu-size=8 / rect / amp / max-tu-size=32 / tu-inter-depth=4 / tu-intra-depth=4 / limit-tu=1 / rdoq-level=2 / dynamic-rd=0.00 / no-ssim-rd / signhide / no-tskip / nr-intra=0 / nr-inter=0 / no-constrained-intra / no-strong-intra-smoothing / max-merge=4 / limit-refs=2 / limit-modes / me=3 / subme=7 / merange=57 / temporal-mvp / weightp / weightb / no-analyze-src-pics / deblock=-3:-3 / no-sao / no-sao-non-deblock / rd=6 / no-early-skip / no-rskip / no-fast-intra / no-tskip-fast / no-cu-lossless / no-b-intra / no-splitrd-skip / rdpenalty=0 / psy-rd=2.00 / psy-rdoq=1.00 / no-rd-refine / no-lossless / cbqpoffs=0 / crqpoffs=0 / rc=crf / crf=19.5 / qcomp=0.65 / qpstep=4 / stats-write=0 / stats-read=0 / vbv-maxrate=50000 / vbv-bufsize=50000 / vbv-init=0.9 / crf-max=0.0 / crf-min=0.0 / ipratio=1.40 / pbratio=1.30 / aq-mode=1 / aq-strength=1.00 / no-cutree / zone-count=0 / no-strict-cbr / qg-size=32 / no-rc-grain / qpmax=69 / qpmin=0 / no-const-vbv / sar=1 / overscan=0 / videoformat=5 / range=0 / colorprim=1 / transfer=1 / colormatrix=1 / chromaloc=0 / display-window=0cll=0,0 / min-luma=0 / max-luma=1023 / log2-max-poc-lsb=8 / vui-timing-info / vui-hrd-info / slices=1 / no-opt-qp-pps / no-opt-ref-list-length-pps / no-multi-pass-opt-rps / scenecut-bias=0.05 / no-opt-cu-delta-qp / no-aq-motion / no-hdr / no-hdr-opt / no-dhdr10-opt / no-idr-recovery-sei / analysis-reuse-level=5 / scale-factor=0 / refine-intra=0 / refine-inter=0 / refine-mv=0 / refine-ctu-distortion=0 / no-limit-sao / ctu-info=0 / no-lowpass-dct / refine-analysis-type=0 / copy-pic=1 / max-ausize-factor=1.0 / no-dynamic-refine / no-single-sei / no-hevc-aq / no-svt / no-field / qp-adaptation-range=1.00
Default : Да
Forced : Нет
Цветовой диапазон : Limited
Основные цвета : BT.709
Характеристики трансфера : BT.709
Коэффициенты матрицы : BT.709

Аудио #1
Идентификатор : 2
Формат : AC-3
Формат/Информация : Audio Coding 3
Идентификатор кодека : A_AC3
Продолжительность : 1 ч. 58 м.
Вид битрейта : Постоянный
Битрейт : 384 Кбит/сек
Каналы : 6 каналов
Расположение каналов : Front: L C R, Side: L R, LFE
Частота : 48,0 КГц
Частота кадров : 31,250 кадров/сек (1536 SPF)
Битовая глубина : 16 бит
Метод сжатия : С потерями
Размер потока : 325 Мбайт (4%)
Заголовок : iTunes
Язык : Russian
ServiceKind/ : Complete Main
Default : Да
Forced : Да

Аудио #2
Идентификатор : 3
Формат : AC-3
Формат/Информация : Audio Coding 3
Идентификатор кодека : A_AC3
Продолжительность : 1 ч. 58 м.
Вид битрейта : Постоянный
Битрейт : 640 Кбит/сек
Каналы : 6 каналов
Расположение каналов : Front: L C R, Side: L R, LFE
Частота : 48,0 КГц
Частота кадров : 31,250 кадров/сек (1536 SPF)
Битовая глубина : 16 бит
Метод сжатия : С потерями
Размер потока : 541 Мбайт (7%)
Заголовок : Original
Язык : English
ServiceKind/ : Complete Main
Default : Нет
Forced : Нет

Текст #1
Идентификатор : 4
Формат : UTF-8
Идентификатор кодека : S_TEXT/UTF8
Идентификатор кодека/Информация : UTF-8 Plain Text
Продолжительность : 1 ч. 55 м.
Битрейт : 68 бит/сек
ElementCount : 1371
Размер потока : 58,1 Кбайт (0%)
Заголовок : Full
Язык : Russian
Default : Нет
Forced : Нет

Текст #2
Идентификатор : 5
Формат : UTF-8
Идентификатор кодека : S_TEXT/UTF8
Идентификатор кодека/Информация : UTF-8 Plain Text
Продолжительность : 1 ч. 47 м.
Битрейт : 89 бит/сек
ElementCount : 1642
Размер потока : 70,4 Кбайт (0%)
Заголовок : SDH
Язык : Russian
Default : Нет
Forced : Нет

Текст #3
Идентификатор : 6
Формат : UTF-8
Идентификатор кодека : S_TEXT/UTF8
Идентификатор кодека/Информация : UTF-8 Plain Text
Продолжительность : 1 ч. 46 м.
Битрейт : 50 бит/сек
ElementCount : 1369
Размер потока : 39,1 Кбайт (0%)
Заголовок : Full
Язык : English
Default : Нет
Forced : Нет

Меню
00:00:00.000 : en:"Circle Of Life/Nants' Ingonyama"
00:04:50.499 : en:"Life's Not Fair"
00:10:51.067 : en:"Everything The Light Touches"
00:17:47.692 : en:"I Just Can't Wait To Be King"
00:23:53.015 : en:Elephant Graveyard
00:30:00.132 : en:Under The Stars
00:33:05.066 : en:"Be Prepared"
00:37:09.310 : en:Stampede
00:43:42.912 : en:Scar Takes Over
00:50:47.336 : en:Timon And Pumbaa
00:55:02.716 : en:"Hakuna Matata"
00:59:48.460 : en:Scar's Kingdom
01:06:27.233 : en:"Line Of Indifference"
01:14:32.093 : en:"The Lion Sleeps Tonight"
01:18:26.410 : en:"Can You Feel The Love Tonight"
01:23:07.900 : en:"He Lives In You"
01:28:04.654 : en:"Spirit"
01:33:10.877 : en:Simba Confronts Scar
01:37:13.745 : en:Battle For Pride Rock
01:44:39.190 : en:The Rightful King
01:47:47.336 : en:End Credits/"Never Too Late"
Источник http://BlaTor.org

Трекер:  [ 15-Окт-2019 22:30 ]

  

Скачать .torrent

Размер .torrent файла 19 KB


Размер: 7.53 GB
Хэш (hash) релиза: 267e36558d454e3edb006549db7155591c7987cf
Подписка на обновления:

Торренты, похожие на Король Лев The Lion King скачать торрент

Форум Название Автор Размер S L Добавлен
Мультфильмы 2016-2018 (Новинки мультфильмов) ·%· Король Лев / The Lion King (2019) BDRip 1080p от Ash61 | 3D-Video | halfOU | iTunes Galfimbul 1216763163411.33 GB 0 0 1573245015

23:30

8-Ноя-19

Мультфильмы 2016-2018 (Новинки мультфильмов) ·%· Король Лев / The Lion King (2019) BDRip 1080p от селезень | 3D-Video | HSBS | iTunes Galfimbul 1421069468613.23 GB 1 1 1573164622

01:10

8-Ноя-19

Мультфильмы 2016-2018 (Новинки мультфильмов) ·%· Король Лев / The Lion King (2019) BDRemux 1080p от селезень | 3D-Video | iTunes Galfimbul 4211775897639.23 GB 0 0 1573117216

12:00

7-Ноя-19

Мультфильмы 2016-2018 (Новинки мультфильмов) ·%· Король Лев / The Lion King (2019) BDRip-AVC от ExKinoRay | iTunes Galfimbul 782416514746 MB 0 0 1571675425

19:30

21-Окт-19

Мультфильмы 2016-2018 (Новинки мультфильмов) ·%· Король Лев / The Lion King (2019) HDRip от Scarabey | iTunes Galfimbul 781187072745 MB 0 0 1571332843

20:20

17-Окт-19

Мультфильмы 2016-2018 (Новинки мультфильмов) ·%· Король Лев / The Lion King (2019) HDRip от Generalfilm | КПК | iTunes Galfimbul 471701276450 MB 0 0 1570956616

11:50

13-Окт-19

Мультфильмы 2016-2018 (Новинки мультфильмов) ·%· Король Лев / The Lion King (2019) HDRip от ExKinoRay | iTunes Galfimbul 786634752750 MB 0 0 1570948211

09:30

13-Окт-19

Мультфильмы 2016-2018 (Новинки мультфильмов) ·%· Король Лев / The Lion King (2019) HDRip от MegaPeer | iTunes Galfimbul 833091442794 MB 0 0 1570947010

09:10

13-Окт-19

Зарубежные фильмы 2016-2018 (Новинки зарубежного кино) ·%· Король Лев / The Lion King (2019) BDRip 1080p | iTunes Galfimbul 1770686151216.49 GB 2 0 1570935007

05:50

13-Окт-19

Мультфильмы 2016-2018 (Новинки мультфильмов) ·%· Король Лев / The Lion King (2019) BDRip от Twister & ExKinoRay | iTunes Galfimbul 22864814142.13 GB 2 0 1570913455

23:50

12-Окт-19

Мультфильмы 2016-2018 (Новинки мультфильмов) ·%· Король Лев / The Lion King (2019) HDRip от Scarabey | iTunes Galfimbul 14939811841.39 GB 0 0 1570902026

20:40

12-Окт-19

Мультфильмы 2016-2018 (Новинки мультфильмов) ·%· Король Лев / The Lion King (2019) BDRip-AVC от OlLanDGroup | iTunes Galfimbul 26362103232.46 GB 0 0 1570898464

19:41

12-Окт-19

Мультфильмы 2016-2018 (Новинки мультфильмов) ·%· Король Лев / The Lion King (2019) BDRip от Twister & ExKinoRay | iTunes Galfimbul 15103896581.41 GB 0 0 1570896032

19:00

12-Окт-19

Мультфильмы 2016-2018 (Новинки мультфильмов) ·%· Король Лев / The Lion King (2019) BDRip 720p от ExKinoRay | iTunes Galfimbul 48278863344.5 GB 0 0 1570890018

17:20

12-Окт-19

Мультфильмы 2016-2018 (Новинки мультфильмов) ·%· Король Лев / The Lion King (2019) BDRip-HEVC 1080p от селезень | iTunes Galfimbul 72968559986.8 GB 0 0 1570884011

15:40

12-Окт-19

Мультфильмы 2016-2018 (Новинки мультфильмов) ·%· Король Лев / The Lion King (2019) BDRip 720p от селезень | iTunes Galfimbul 66749031796.22 GB 0 0 1570878065

14:01

12-Окт-19

Мультфильмы 2016-2018 (Новинки мультфильмов) ·%· Король Лев / The Lion King (2019) BDRip от MegaPeer | iTunes Galfimbul 15129559041.41 GB 0 0 1570876829

13:40

12-Окт-19

Мультфильмы 2016-2018 (Новинки мультфильмов) ·%· Король Лев / The Lion King (2019) BDRip от MegaPeer | iTunes Galfimbul 22862213122.13 GB 0 0 1570876824

13:40

12-Окт-19

Мультфильмы 2016-2018 (Новинки мультфильмов) ·%· Король Лев / The Lion King (2019) BDRemux 1080p от селезень | iTunes Galfimbul 2930694281627.29 GB 2 0 1570839621

03:20

12-Окт-19

Еще никто не оставлял запись к записи скачать торрент Король Лев The Lion King . Будь первым!

!Обратная связь