Скачать через торрент Разочарование 2 Disenchantment 2 Фильм бесплатно в хорошем качестве torrent

Скачивайте на UnionPeer.org фильмы через торрент без регистрации. Новинки кино в хорошем качестве через торрент. На UnionPeer.org можно скачать через торрент фильмы 2014 и 2015 годов. Самые новые фильмы.

Скачать торрент Разочарование 2 Disenchantment 2 бесплатно через .torrent фильм мультфильм сериал

Статистика раздачи
Размер:  3.62 GB   |    Зарегистрирован:  1 месяц 1 день   |    .torrent скачан:  100 раз   |   
Раздают:  1  
 

Скачать Разочарование 2 / Disenchantment 2 [S02] (2019) WEB-DLRip 1080p | Кубик в Кубе через torrent

 
загрузка...
 
Автор Сообщение

Galfimbul

avatar Galfimbul


Разочарование 2 /Disenchantment 2

Год выхода: 2019, релиз: 21 сентября 2019
Жанр: Фэнтези, Комедия, Приключения
Режиссер: Фрэнк Марино
В ролях: Эрик Андре, Мэтт Берри, Джон Ди Маджио, Нат Факсон, Ноэль Филдинг, Дэвид Херман, Эбби Джейкобсон, Морис ЛаМарш, Тресс МакНилл, Билли Уэст и др.

О фильме:
Действие разворачивается в Средневековье в королевстве Дримландия, где живёт юная принцесса-алкоголичка Бин. Отказавшись выходить замуж, Бин отправляется в путешествие по стране в компании эльфа и демона. По дороге трио встретит множество фантастических тварей и дураков людского происхождения.

Страна: USA
Студия: Netflix
Продолжительность: ~00:30:00 серия
Перевод: Многоголосый закадровый, профессиональный, русский | Кубик в Кубе

Файл
Кодек: AVI/H.264, 1920х1080, ~1800 Kbp
Качество: WEB-DLRip 1080p
Видео: 1920х1080, ~1800 Kbp
Звук: AAC LC, 2 ch, 192 Kbps
 
General
Complete name : Разочарование 2.1.avi
Format : AVI
Format/Info : Audio Video Interleave
File size : 443 MiB
Duration : 30 min 50 s
Overall bit rate : 2 008 kb/s
Writing application : Lavf58.12.100

Video
ID : 0
Format : AVC
Format/Info : Advanced Video Codec
Format profile : High@L4.1
Format settings : CABAC / 4 Ref Frames
Format settings, CABAC : Yes
Format settings, Reference fra : 4 frames
Codec ID : H264
Duration : 30 min 50 s
Bit rate : 1 800 kb/s
Width : 1 920 pixels
Height : 1 080 pixels
Display aspect ratio : 16:9
Frame rate mode : Variable
Frame rate : 23.976 (24000/1001) FPS
Color space : YUV
Chroma subsampling : 4:2:0
Bit depth : 8 bits
Scan type : Progressive
Bits/(Pixel*Frame) : 0.036
Stream size : 397 MiB (90%)
Writing library : x264 core 155
Encoding settings : cabac=1 / ref=3 / deblock=1:0:0 / analyse=0x3:0x113 / me=hex / subme=7 / psy=1 / psy_rd=1.00:0.00 / mixed_ref=1 / me_range=16 / chroma_me=1 / trellis=1 / 8x8dct=1 / cqm=0 / deadzone=21,11 / fast_pskip=1 / chroma_qp_offset=-2 / threads=12 / lookahead_threads=2 / sliced_threads=0 / nr=0 / decimate=1 / interlaced=0 / bluray_compat=0 / constrained_intra=0 / bframes=3 / b_pyramid=2 / b_adapt=1 / b_bias=0 / direct=1 / weightb=1 / open_gop=0 / weightp=2 / keyint=48 / keyint_min=4 / scenecut=0 / intra_refresh=0 / rc_lookahead=40 / rc=2pass / mbtree=1 / bitrate=1800 / ratetol=1.0 / qcomp=0.60 / qpmin=0 / qpmax=69 / qpstep=4 / cplxblur=20.0 / qblur=0.5 / vbv_maxrate=3600 / vbv_bufsize=7200 / nal_hrd=none / filler=0 / ip_ratio=1.40 / aq=1:1.00

Audio
ID : 1
Format : AAC LC
Format/Info : Advanced Audio Codec Low Complexity
Codec ID : FF-2
Duration : 30 min 50 s
Bit rate : 192 kb/s
Channel(s) : 2 channels
Channel layout : L R
Sampling rate : 48.0 kHz
Frame rate : 46.875 FPS (1024 SPF)
Compression mode : Lossy
Stream size : 43.0 MiB (10%)
Alignment : Split across interleaves
Interleave, duration : 21 ms (0.51 video frame)
Источник http://BlaTor.org

Трекер:  [ 16-Окт-2019 12:50 ]

  

Скачать .torrent

Размер .torrent файла 19 KB


Размер: 3.62 GB
Хэш (hash) релиза: b84c2efea1d844def064000db6d60439575e96a9
Подписка на обновления:

Еще никто не оставлял запись к записи скачать торрент Разочарование 2 Disenchantment 2 . Будь первым!

!Обратная связь